<?xml version="1.0" standalone="no"?>
<!DOCTYPE svg PUBLIC "-//W3C//DTD SVG 1.1//EN" "http://www.w3.org/Graphics/SVG/1.1/DTD/svg11.dtd" >
<svg xmlns="http://www.w3.org/2000/svg" xmlns:xlink="http://www.w3.org/1999/xlink" version="1.1">
<metadata>
Created by FontForge 20170731 at Fri Jan 25 18:08:33 2013
 By Aleksey,,,
Copyright (c) 2012 by Mariya Pigoulevskaya. All rights reserved.
</metadata>
<defs>
<font id="Neusa-Light" horiz-adv-x="399" >
  <font-face 
    font-family="Neusa Light"
    font-weight="300"
    font-stretch="normal"
    units-per-em="1000"
    panose-1="0 0 4 0 0 0 0 0 0 0"
    ascent="750"
    descent="-250"
    x-height="500"
    cap-height="700"
    bbox="-56 -173 852 900"
    underline-thickness="50"
    underline-position="-200"
    unicode-range="U+0020-FB02"
  />
<missing-glyph horiz-adv-x="250" 
 />
    <glyph glyph-name="fi" unicode="fi" horiz-adv-x="476" 
d="M269 709h12v-18h-11q-34 0 -53 -5t-35 -21.5t-22 -50t-6 -89.5v-25h127v-19h-127v-481h-19v481h-90v18h90v34q0 56 8 91.5t26.5 53.5t40.5 24t59 7zM389 625h27v-28h-27v28zM393 500h19v-500h-19v500z" />
    <glyph glyph-name="fl" unicode="fl" horiz-adv-x="463" 
d="M269 709h12v-18h-13q-33 0 -52 -5t-34.5 -22t-21.5 -50t-6 -89v-25h127v-19h-127v-481h-19v481h-90v18h90v34q0 56 8 91.5t26.5 53.5t40.5 24t59 7zM389 700h19v-700h-19v700z" />
    <glyph glyph-name=".notdef" horiz-adv-x="250" 
 />
    <glyph glyph-name=".null" horiz-adv-x="0" 
 />
    <glyph glyph-name="nonmarkingreturn" horiz-adv-x="333" 
 />
    <glyph glyph-name="space" unicode=" " horiz-adv-x="300" 
 />
    <glyph glyph-name="exclam" unicode="!" horiz-adv-x="127" 
d="M53 701h20v-241l-2 -320h-18v561zM50 0v28h27v-28h-27z" />
    <glyph glyph-name="quotedbl" unicode="&#x22;" horiz-adv-x="191" 
d="M50 700h20l-3 -139h-14zM122 700h19l-3 -139h-13z" />
    <glyph glyph-name="numbersign" unicode="#" horiz-adv-x="663" 
d="M609 426h-160l-36 -173h160l-4 -19h-160l-50 -234h-20l50 234h-165l-50 -234h-20l50 234h-154l4 19h154l36 173h-153l4 19h154l54 255h20l-54 -255h164l55 255h20l-55 -255h160zM393 253l36 173h-165l-36 -173h165z" />
    <glyph glyph-name="dollar" unicode="$" horiz-adv-x="524" 
d="M458 497h-19q0 51 -15 89.5t-40.5 60.5t-54.5 33t-61 11q-21 0 -40.5 -3.5t-38.5 -11t-34.5 -19t-27 -27.5t-18 -38t-6.5 -48q0 -23 6.5 -43t15.5 -34t23 -26.5t26.5 -20.5t29.5 -15.5t27.5 -10.5t25.5 -8t20 -6q98 -33 142.5 -77t44.5 -120q0 -94 -51 -140.5t-135 -50.5
v-42h-20v42q-35 1 -68.5 12.5t-63 35.5t-48 66.5t-18.5 97.5h20q0 -53 17 -92t45 -60.5t58 -31t62 -9.5q82 0 132.5 42t50.5 130q0 37 -13.5 67t-38.5 50.5t-52 34.5t-65 26q-5 2 -22 7.5t-25 8.5t-25 9.5t-26.5 12t-24 14.5t-23 17.5t-18.5 21t-15.5 26t-9.5 30.5t-4 36
q0 43 15 75t40.5 51t55.5 28.5t64 10.5v41h20v-41q34 -2 65 -14.5t57.5 -37t42 -66t15.5 -94.5z" />
    <glyph glyph-name="percent" unicode="%" horiz-adv-x="631" 
d="M50 493v119q0 21 7 38.5t17.5 27.5t24 17t25.5 9.5t23 2.5q35 0 66 -23t31 -72v-119q0 -25 -10 -44.5t-25.5 -29.5t-31 -15t-30.5 -6q-11 0 -23 2.5t-25.5 9.5t-24 17.5t-17.5 27.5t-7 38zM521 700h24l-436 -700h-23zM224 493v119q0 38 -24 56.5t-53 18.5
q-28 0 -52.5 -18t-24.5 -57v-119q0 -39 24.5 -57t52.5 -18q29 1 53 19.5t24 55.5zM387 88v119q0 26 10 46t26 30t31.5 14.5t29.5 4.5q35 0 66 -23.5t31 -71.5v-119q0 -49 -31 -72t-66 -23q-14 0 -29.5 4.5t-31.5 14.5t-26 29.5t-10 46.5zM561 88v119q0 37 -24 56t-53 19
q-28 0 -52.5 -18t-24.5 -57v-119q0 -27 14 -45t30 -24t33 -6q29 0 53 18.5t24 56.5z" />
    <glyph glyph-name="ampersand" unicode="&#x26;" horiz-adv-x="555" 
d="M510 372v-19h-43v-176q0 -55 -15.5 -92t-44 -56.5t-60 -27.5t-72.5 -9h-23q-85 0 -146 48.5t-61 132.5v18q0 68 35 112t98 60q-36 10 -63 30t-43.5 53t-16.5 76v18q0 44 16.5 78t44 53t59 28.5t65.5 9.5h114v-19h-114q-17 0 -33.5 -2t-33 -7t-31 -13t-27 -20.5t-21.5 -28
t-14 -37t-5 -47.5v-8q0 -42 15.5 -73.5t41.5 -48.5t55.5 -25t62.5 -8h197v181h20v-181h43zM447 178v175h-197q-84 0 -134.5 -41.5t-50.5 -125.5v-8q0 -56 28 -95t69 -55.5t90 -16.5h14q31 0 55 3t49 13.5t41 28t26 48.5t10 74z" />
    <glyph glyph-name="quotesingle" unicode="'" horiz-adv-x="120" 
d="M50 700h20l-3 -139h-14z" />
    <glyph glyph-name="parenleft" unicode="(" horiz-adv-x="231" 
d="M121 750h60v-19h-61q-20 0 -35.5 -16t-15.5 -41v-740q0 -24 15.5 -40t35.5 -16h61v-18h-60q-29 0 -50 21.5t-21 54.5v738q0 33 21 54.5t50 21.5z" />
    <glyph glyph-name="parenright" unicode=")" horiz-adv-x="231" 
d="M50 750h60q19 0 35 -9.5t26 -27t10 -39.5v-738q0 -33 -21 -54.5t-50 -21.5h-60v19h60q21 0 36 15.5t15 40.5v739q0 25 -15 41t-36 16h-60v19z" />
    <glyph glyph-name="asterisk" unicode="*" horiz-adv-x="392" 
d="M186 716h20v-136l129 42l6 -19l-130 -42l80 -111l-15 -10l-80 110l-80 -110l-16 10l80 111l-130 42l6 19l130 -42v136z" />
    <glyph glyph-name="plus" unicode="+" horiz-adv-x="514" 
d="M247 519h20v-197h197v-20h-197v-197h-20v197h-197v20h197v197z" />
    <glyph glyph-name="comma" unicode="," horiz-adv-x="127" 
d="M50 28h27v-28l-14 -23h-7l5 23h-11v28z" />
    <glyph glyph-name="hyphen" unicode="-" horiz-adv-x="348" 
d="M50 279h248v-20h-248v20z" />
    <glyph glyph-name="period" unicode="." horiz-adv-x="127" 
d="M50 0v28h27v-28h-27z" />
    <glyph glyph-name="slash" unicode="/" horiz-adv-x="435" 
d="M50 0l315 700h20l-315 -700h-20z" />
    <glyph glyph-name="zero" unicode="0" horiz-adv-x="525" 
d="M60 234v194q0 67 17 115.5t47 75t64 39t74 12.5q39 0 73.5 -12t64.5 -38.5t47.5 -75.5t17.5 -116v-194q0 -67 -17.5 -116t-47.5 -75.5t-64.5 -38.5t-73.5 -12q-40 0 -74 12.5t-64 39t-47 75t-17 115.5zM446 244v174q0 67 -15.5 114.5t-43 72.5t-58 36t-67.5 11t-67.5 -11
t-57.5 -36t-42 -72.5t-15 -114.5v-174q0 -67 15 -114.5t42 -72.5t57.5 -35.5t67.5 -10.5t67.5 10.5t58 35.5t43 72.5t15.5 114.5z" />
    <glyph glyph-name="one" unicode="1" horiz-adv-x="184" 
d="M45 660h79v-660h-20v641h-59v19z" />
    <glyph glyph-name="two" unicode="2" horiz-adv-x="489" 
d="M241 669h19q25 0 50 -6.5t49.5 -21t43 -36t30 -54.5t11.5 -73v-2q0 -44 -21 -82t-54 -65.5t-73.5 -53.5t-80.5 -52t-73.5 -54t-54.5 -66.5t-21 -82.5h372v-20h-393v19q0 42 16.5 79t43 63t60.5 52t69.5 46t70 44.5t61 48t43 56.5t16.5 70q0 48 -16 83t-41.5 53.5
t-52.5 27t-55 8.5h-10q-28 0 -55.5 -8t-53.5 -25t-46 -48.5t-28 -73.5h-21l2 9q12 55 45.5 93t70.5 54t77 18z" />
    <glyph glyph-name="three" unicode="3" horiz-adv-x="502" 
d="M244 669h23q26 0 55.5 -9.5t58 -27.5t47.5 -50t19 -72v-18q0 -23 -6 -43.5t-17 -37t-26.5 -30t-34 -23t-39.5 -15.5q63 -16 98 -58.5t35 -103.5v-18q0 -77 -57 -124t-133 -47h-23q-31 0 -61.5 10.5t-59 31.5t-49.5 57t-28 83l-1 4h20q6 -46 26.5 -80t48 -52t56 -26.5
t57.5 -8.5h14q68 0 119.5 41t51.5 116v8q0 51 -24.5 87.5t-64.5 53t-92 16.5h-60v19h60q31 0 59.5 7.5t54.5 24t41.5 45.5t15.5 68v8q0 32 -12 58t-29.5 42t-39.5 26.5t-42 14.5t-38 4h-14q-28 0 -55.5 -8t-54.5 -25t-47 -48.5t-28 -73.5h-21l1 6q12 56 46 95t72 55t78 18z
" />
    <glyph glyph-name="four" unicode="4" horiz-adv-x="494" 
d="M449 192v-19h-76v-173h-20v173h-308v19l265 468h21l-264 -468h286v308h20v-308h76z" />
    <glyph glyph-name="five" unicode="5" horiz-adv-x="507" 
d="M83 660h331v-19h-311v-245h99h12.5t18.5 0.5t22.5 0t25 -1t24.5 -2.5t24 -5q63 -16 98 -59t35 -104v-62q0 -77 -57 -124t-133 -47h-23q-42 0 -81.5 17t-73 59.5t-43.5 103.5l-1 6h20q6 -46 26.5 -80t48 -52t56 -26.5t57.5 -8.5h14q68 0 119.5 41t51.5 116v52
q0 77 -50.5 117t-130.5 40h-179v283z" />
    <glyph glyph-name="six" unicode="6" horiz-adv-x="505" 
d="M50 182v246q0 66 18.5 115t49.5 75.5t66.5 39t75.5 12.5q34 0 66 -9t60.5 -28t46 -54.5t17.5 -83.5h-19q0 44 -15.5 76t-42 48.5t-54.5 24t-59 7.5q-38 0 -69 -10t-60 -34t-45 -71t-16 -113v-130q43 100 156 100h53q48 0 84 -19t55 -50t28 -64t9 -68t-9 -68t-28 -63.5
t-55 -49.5t-84 -19h-53q-46 0 -81 17.5t-54.5 46.5t-29.5 60.5t-11 65.5zM226 11h53q42 0 74 16.5t49 44t25.5 57.5t8.5 63t-8 63t-25.5 58t-49 44.5t-74.5 16.5h-53q-43 0 -74.5 -16.5t-48.5 -44.5t-25 -58t-8 -63t8 -63t25 -57.5t49 -44t74 -16.5z" />
    <glyph glyph-name="seven" unicode="7" horiz-adv-x="474" 
d="M45 660h376v-17l-293 -643h-22l293 641h-354v19z" />
    <glyph glyph-name="eight" unicode="8" horiz-adv-x="508" 
d="M235 669h38q20 0 43 -5.5t47.5 -18t44.5 -30.5t32.5 -45t12.5 -60v-18q0 -57 -34 -95t-89 -54q63 -16 98 -58.5t35 -103.5v-18q0 -77 -57 -124t-133 -47h-38q-48 0 -91 20t-71 60t-28 91v18q0 61 35.5 103.5t97.5 58.5q-36 10 -63 29.5t-43.5 50.5t-16.5 69v18
q0 40 19 72t47.5 50t58 27.5t55.5 9.5zM434 497v8q0 23 -6.5 43.5t-16.5 35t-23.5 26t-28.5 19t-30.5 12.5t-29.5 7t-26 2h-38q-14 0 -30.5 -3t-35 -9.5t-35 -18t-30 -27t-21.5 -38t-8 -49.5v-8q0 -39 15.5 -68t41 -45.5t54 -24t59.5 -7.5h18q31 0 59.5 7.5t54.5 24
t41.5 45.5t15.5 68zM444 168v8q0 76 -50.5 116.5t-130.5 40.5h-18q-80 0 -130 -40.5t-50 -116.5v-8q0 -75 51 -116t119 -41h38q68 0 119.5 41t51.5 116z" />
    <glyph glyph-name="nine" unicode="9" horiz-adv-x="495" 
d="M450 480v-246q0 -66 -18.5 -115t-49.5 -75.5t-66.5 -39t-75.5 -12.5q-34 0 -66 9t-60.5 28t-46 54.5t-17.5 83.5h20q0 -44 15.5 -76t41.5 -48.5t54 -24t59 -7.5q38 0 69.5 10t60 34t45 71t16.5 113v130q-44 -100 -157 -100h-53q-48 0 -84 19t-55 50t-28 64t-9 68t9 68
t28.5 63.5t55 49.5t83.5 19h53q46 0 81 -17.5t54.5 -46.5t29.5 -60.5t11 -65.5zM274 651h-53q-42 0 -74 -16.5t-49 -44t-25 -57.5t-8 -63t8 -63t25 -58t48.5 -44.5t74.5 -16.5h53q43 0 74.5 16.5t49 44.5t25.5 58t8 63t-8.5 63t-25.5 57.5t-49 44t-74 16.5z" />
    <glyph glyph-name="colon" unicode=":" horiz-adv-x="127" 
d="M50 333v28h27v-28h-27zM50 0v28h27v-28h-27z" />
    <glyph glyph-name="semicolon" unicode=";" horiz-adv-x="127" 
d="M50 361h27v-28h-27v28zM50 0v28h27v-28l-14 -23h-7l5 23h-11z" />
    <glyph glyph-name="less" unicode="&#x3c;" horiz-adv-x="389" 
d="M50 354l289 190v-24l-271 -179l271 -177v-25l-289 190v25z" />
    <glyph glyph-name="equal" unicode="=" horiz-adv-x="514" 
d="M50 437h414v-19h-414v19zM50 284h414v-19h-414v19z" />
    <glyph glyph-name="greater" unicode="&#x3e;" horiz-adv-x="389" 
d="M50 520v24l289 -190v-25l-289 -190v25l271 177z" />
    <glyph glyph-name="question" unicode="?" horiz-adv-x="498" 
d="M245 709h19q32 0 63 -10.5t59 -32t45 -60t17 -88.5v-2q0 -34 -9 -61t-23.5 -44t-33.5 -32.5t-38.5 -26.5t-38.5 -25t-33.5 -29t-23.5 -37.5t-9 -51.5h-22q0 35 11.5 62t30.5 44.5t41.5 32l45 29t41 32t30 45.5t11.5 64q0 48 -15.5 83t-41 53.5t-52.5 27.5t-55 9h-10
q-28 0 -55.5 -8.5t-53.5 -25.5t-46 -48.5t-29 -73.5h-20l1 6q12 56 45.5 95t70.5 55t78 18zM215 28h27v-28h-27v28z" />
    <glyph glyph-name="at" unicode="@" horiz-adv-x="735" 
d="M513 -99h-150q-76 0 -131.5 17.5t-90 48t-55 79t-28.5 104t-8 130.5q0 69 8 120t29 96t56.5 73.5t93 44.5t136.5 16q48 0 88 -6t70 -15.5t53.5 -26t39.5 -33t27.5 -42t17.5 -48.5t10 -55.5t5 -59.5t1 -65v-148q0 -44 -29.5 -73t-72.5 -29q-72 0 -87 71q-17 -48 -51 -70.5
t-77 -22.5q-29 0 -53.5 9t-46 28t-34 54.5t-12.5 84.5v165q0 49 12.5 84.5t34 54.5t46 28t53.5 9q27 0 50.5 -8.5t43.5 -28t32 -48.5v76h19v-384q0 -42 14 -62t56 -20q37 0 59.5 22t22.5 60v148q-1 49 -2.5 79t-7.5 69.5t-17.5 62.5t-33 49t-52 39.5t-75.5 22.5t-104 9
q-76 0 -130.5 -15t-88 -41t-52.5 -69t-25.5 -90.5t-6.5 -114.5q0 -73 6.5 -125t25 -98.5t51 -75t85 -44.5t125.5 -16h150v-20zM240 340v-149q0 -48 11 -81.5t29.5 -51.5t40 -25.5t47.5 -7.5q126 0 126 166v149q0 166 -126 166q-20 0 -37.5 -4t-34.5 -15.5t-29 -30t-19.5 -48
t-7.5 -68.5z" />
    <glyph glyph-name="A" unicode="A" horiz-adv-x="553" 
d="M474 0l-75 251h-245l-74 -251h-20l206 700h21l206 -700h-19zM160 272h233l-116 396z" />
    <glyph glyph-name="B" unicode="B" horiz-adv-x="490" 
d="M80 700h151q30 0 58 -5.5t54 -18t45.5 -31.5t31 -47t11.5 -63v-17q0 -60 -32.5 -98.5t-86.5 -55.5q66 -15 102 -58.5t36 -110.5v-18q0 -85 -56 -131t-154 -46h-160v700zM412 518v17q0 38 -15.5 67.5t-41.5 46t-57 24.5t-67 8h-131v-309h131q79 0 130 36.5t51 109.5z
M431 177v18q0 77 -50.5 117.5t-140.5 40.5h-140v-334h140q91 0 141 40.5t50 117.5z" />
    <glyph glyph-name="C" unicode="C" horiz-adv-x="520" 
d="M80 234v233q0 67 17 115.5t47 75t64 39t74 12.5q38 0 70 -11t60.5 -35t46.5 -68t21 -105v-13h-19l-1 13q-4 57 -20 97.5t-41.5 62t-54 31t-62.5 9.5q-37 0 -67.5 -10.5t-57.5 -35.5t-42 -72.5t-15 -114.5v-213q0 -67 15 -114.5t42 -72.5t57.5 -35.5t67.5 -10.5q34 0 62 9
t53.5 30.5t41.5 61t21 95.5l1 17h19v-11q-3 -61 -20.5 -105.5t-46.5 -69t-61 -35.5t-70 -11q-40 0 -74 12.5t-64 39t-47 75t-17 115.5z" />
    <glyph glyph-name="D" unicode="D" horiz-adv-x="529" 
d="M80 700h171q39 0 73.5 -12t64.5 -38.5t47.5 -75.5t17.5 -116v-216q0 -67 -17.5 -116t-47.5 -75.5t-64.5 -38.5t-73.5 -12h-171v700zM435 252v196q0 67 -15.5 114.5t-43 72.5t-58 35.5t-67.5 10.5h-151v-662h151q37 0 67.5 10.5t58 35.5t43 72.5t15.5 114.5z" />
    <glyph glyph-name="E" unicode="E" horiz-adv-x="423" 
d="M383 681h-283v-309h273v-19h-273v-334h283v-19h-303v700h303v-19z" />
    <glyph glyph-name="F" unicode="F" horiz-adv-x="417" 
d="M377 681h-277v-317h267v-19h-267v-345h-20v700h297v-19z" />
    <glyph glyph-name="G" unicode="G" horiz-adv-x="562" 
d="M80 234v233q0 67 17 115.5t47 75t64 39t74 12.5q39 0 72.5 -11.5t63.5 -37t48 -72.5t19 -111v-10h-19v8q-2 61 -18.5 105t-43.5 67t-57 33t-65 10q-37 0 -67.5 -10.5t-57.5 -35.5t-42 -72.5t-15 -114.5v-213q0 -67 15 -114.5t42 -72.5t57.5 -35.5t67.5 -10.5t67.5 10.5
t58 35.5t43 72.5t15.5 114.5v94h-172v19h191v-123q0 -54 -11.5 -96.5t-31 -69.5t-46.5 -44.5t-55 -24.5t-59 -7q-40 0 -74 12.5t-64 39t-47 75t-17 115.5z" />
    <glyph glyph-name="H" unicode="H" horiz-adv-x="520" 
d="M421 700h19v-700h-19v353h-321v-353h-20v700h20v-328h321v328z" />
    <glyph glyph-name="I" unicode="I" horiz-adv-x="180" 
d="M80 0v700h20v-700h-20z" />
    <glyph glyph-name="J" unicode="J" horiz-adv-x="333" 
d="M233 700h20v-466q0 -62 -15.5 -109.5t-42 -74.5t-56.5 -41.5t-65 -16.5h-14v19h10q32 1 59.5 14t52 39t38 72t13.5 108v456z" />
    <glyph glyph-name="K" unicode="K" horiz-adv-x="511" 
d="M451 0h-28l-323 349v-349h-20v700h20v-327l298 327h28l-310 -339z" />
    <glyph glyph-name="L" unicode="L" horiz-adv-x="437" 
d="M100 19h277v-19h-297v700h20v-681z" />
    <glyph glyph-name="M" unicode="M" horiz-adv-x="644" 
d="M545 700h19v-700h-20v641l-213 -641h-21l-213 641v-641h-20v700h20l224 -673z" />
    <glyph glyph-name="N" unicode="N" horiz-adv-x="515" 
d="M418 700h20v-700h-20l-321 660v-660h-20v700h20l321 -660v660z" />
    <glyph glyph-name="O" unicode="O" horiz-adv-x="545" 
d="M70 234v233q0 67 17 115.5t47 75t64 39t74 12.5q39 0 73.5 -12t64.5 -38.5t47.5 -75.5t17.5 -116v-233q0 -67 -17.5 -116t-47.5 -75.5t-64.5 -38.5t-73.5 -12q-40 0 -74 12.5t-64 39t-47 75t-17 115.5zM456 244v213q0 67 -15.5 114.5t-43 72.5t-58 35.5t-67.5 10.5
t-67.5 -10.5t-57.5 -35.5t-42 -72.5t-15 -114.5v-213q0 -67 15 -114.5t42 -72.5t57.5 -35.5t67.5 -10.5t67.5 10.5t58 35.5t43 72.5t15.5 114.5z" />
    <glyph glyph-name="P" unicode="P" horiz-adv-x="506" 
d="M80 700h151q38 0 72 -9t63.5 -28.5t47 -54t17.5 -80.5v-31q0 -45 -17.5 -79t-47 -53.5t-64 -29.5t-71.5 -10h-131v-325h-20v700zM412 502v21q0 46 -15.5 78.5t-43 49t-57 24t-65.5 7.5h-131v-338h131q35 0 65.5 7.5t57.5 24.5t42.5 49.5t15.5 76.5z" />
    <glyph glyph-name="Q" unicode="Q" horiz-adv-x="590" 
d="M372 11h138v-19h-229q-40 0 -74 12.5t-63.5 39t-46.5 75.5t-17 115v233q0 67 17 115.5t47 75t64 39t74 12.5q31 0 59 -7t55 -24.5t46.5 -44.5t31 -69.5t11.5 -96.5v-233q0 -90 -30.5 -145t-82.5 -78zM100 457v-213q0 -67 15 -114.5t42 -72.5t57.5 -35.5t67.5 -10.5
t67.5 10.5t58 35.5t43 72.5t15.5 114.5v213q0 67 -15.5 114.5t-43 72.5t-58 35.5t-67.5 10.5t-67.5 -10.5t-57.5 -35.5t-42 -72.5t-15 -114.5z" />
    <glyph glyph-name="R" unicode="R" horiz-adv-x="505" 
d="M80 700h161q38 0 72 -9t63.5 -28t47 -54t17.5 -81v-21q0 -74 -44 -116t-111 -52l159 -339h-21l-159 335h-165v-335h-20v700zM422 512v11q0 46 -15.5 78.5t-43 49t-57 23.5t-65.5 7h-141v-327h141q35 0 65.5 7.5t57.5 24.5t42.5 49t15.5 77z" />
    <glyph glyph-name="S" unicode="S" horiz-adv-x="524" 
d="M60 204h20q0 -53 17 -92t45 -60.5t58 -31t62 -9.5q83 0 133 40t50 127q0 32 -9.5 59t-24 45.5t-38 34t-45.5 25t-52 19.5q-4 2 -27.5 9.5t-33 11t-31 13t-32 17.5t-26.5 22t-23.5 29t-13.5 36t-6 45q0 44 16 77t43 51.5t59 27.5t67 9q23 0 45.5 -5t44 -15.5t39.5 -28
t32 -40t21.5 -54.5t7.5 -69h-19q0 50 -15 89t-40.5 61t-54.5 32.5t-61 10.5q-25 0 -48.5 -4.5t-45 -15.5t-37.5 -27.5t-25 -42t-9 -56.5t11 -56.5t24.5 -40.5t37 -28.5t37 -18.5t37.5 -12t27 -8q100 -34 143.5 -77.5t43.5 -124.5q0 -51 -15.5 -87.5t-44 -57.5t-64 -31
t-78.5 -10q-35 0 -69 11.5t-64.5 35t-49.5 66.5t-19 99z" />
    <glyph glyph-name="T" unicode="T" horiz-adv-x="472" 
d="M412 700v-19h-166v-681h-20v681h-166v19h352z" />
    <glyph glyph-name="U" unicode="U" horiz-adv-x="556" 
d="M100 244v456h-20v-466q0 -66 17 -114.5t46 -75.5t63 -39.5t73 -12.5t73 12.5t63.5 39.5t46.5 75.5t17 114.5v466h-19v-456q0 -52 -10.5 -93t-27.5 -67t-40.5 -43t-48.5 -24t-54 -7q-37 0 -67.5 12t-56.5 37.5t-40.5 72.5t-14.5 112z" />
    <glyph glyph-name="V" unicode="V" horiz-adv-x="553" 
d="M474 700h19l-206 -700h-21l-206 700h20l197 -669z" />
    <glyph glyph-name="W" unicode="W" horiz-adv-x="827" 
d="M748 700h19l-170 -700h-19l-164 663l-164 -663h-20l-170 700h20l160 -660l163 660h21l163 -660z" />
    <glyph glyph-name="X" unicode="X" horiz-adv-x="505" 
d="M445 700l-182 -349l182 -351h-22l-170 328l-171 -328h-22l182 349l-182 351h22l170 -328l171 328h22z" />
    <glyph glyph-name="Y" unicode="Y" horiz-adv-x="507" 
d="M424 700h23l-186 -401v-299h-20v299l-181 401h22l169 -379z" />
    <glyph glyph-name="Z" unicode="Z" horiz-adv-x="545" 
d="M84 19h401v-19h-425v20l394 661h-386v19h409v-20z" />
    <glyph glyph-name="bracketleft" unicode="[" horiz-adv-x="184" 
d="M134 730h-65v-850h65v-20h-84v890h84v-20z" />
    <glyph glyph-name="backslash" unicode="\" horiz-adv-x="435" 
d="M50 700h20l315 -700h-20z" />
    <glyph glyph-name="bracketright" unicode="]" horiz-adv-x="184" 
d="M50 750h84v-890h-84v20h65v850h-65v20z" />
    <glyph glyph-name="asciicircum" unicode="^" horiz-adv-x="502" 
d="M50 375l201 308l201 -308h-23l-178 270l-177 -270h-24z" />
    <glyph glyph-name="underscore" unicode="_" horiz-adv-x="514" 
d="M50 -80h414v-20h-414v20z" />
    <glyph glyph-name="grave" unicode="`" horiz-adv-x="202" 
d="M50 700h42l60 -110h-22z" />
    <glyph glyph-name="a" unicode="a" 
d="M322 500h19v-500h-19v80q-34 -88 -126 -88q-29 0 -53.5 9t-46 28t-34 54.5t-12.5 84.5v165q0 49 12.5 84.5t34 54.5t46 28t53.5 9q42 0 75.5 -21t50.5 -64v76zM69 325v-149q0 -91 35.5 -128.5t91.5 -37.5q126 0 126 166v149q0 166 -126 166q-25 0 -46.5 -7.5t-40.5 -25
t-29.5 -51.5t-10.5 -82z" />
    <glyph glyph-name="b" unicode="b" horiz-adv-x="401" 
d="M79 700v-276q17 43 50.5 64t75.5 21q29 0 53.5 -9t46 -28t34 -54.5t12.5 -84.5v-165q0 -49 -12.5 -84.5t-34 -54.5t-46 -28t-53.5 -9q-92 0 -126 88v-80h-19v700h19zM332 176v149q0 48 -10.5 82t-29.5 51.5t-40.5 25t-46.5 7.5q-126 0 -126 -166v-149q0 -166 126 -166
q56 0 91.5 37.5t35.5 128.5z" />
    <glyph glyph-name="c" unicode="c" horiz-adv-x="389" 
d="M50 168v165q0 93 41.5 134.5t103.5 41.5q28 0 52 -8t45 -26t34 -51t15 -78v-13h-19q-1 45 -12 77.5t-30 49.5t-39.5 24t-45.5 7q-126 0 -126 -166v-149q0 -166 126 -166q124 0 127 158h19v-11q-3 -87 -44.5 -126t-101.5 -39q-29 0 -53.5 9t-45.5 28.5t-33.5 55
t-12.5 83.5z" />
    <glyph glyph-name="d" unicode="d" 
d="M322 700h19v-700h-19v80q-34 -88 -126 -88q-23 0 -43 5t-39.5 18t-33 32.5t-22 50.5t-8.5 70v165q0 39 8.5 70t22 50.5t33 32.5t39.5 18t43 5q42 0 75.5 -21t50.5 -64v276zM69 325v-149q0 -91 35.5 -128.5t91.5 -37.5q126 0 126 166v149q0 166 -126 166q-25 0 -46.5 -7.5
t-40.5 -25t-29.5 -51.5t-10.5 -82z" />
    <glyph glyph-name="e" unicode="e" horiz-adv-x="388" 
d="M50 168v165q0 93 41.5 134.5t103.5 41.5q28 0 52.5 -9t46 -28t34 -54.5t12.5 -84.5v-98h-271v-59q0 -166 126 -166q52 0 87.5 34t38.5 116h19q-2 -89 -43.5 -128.5t-101.5 -39.5q-29 0 -53.5 9t-45.5 28.5t-33.5 55t-12.5 83.5zM321 253v72q0 48 -10.5 82t-29.5 51.5
t-40 25t-46 7.5q-126 0 -126 -166v-72h252z" />
    <glyph glyph-name="f" unicode="f" horiz-adv-x="326" 
d="M267 709h14v-18h-14q-33 0 -51.5 -5t-34 -22t-21.5 -50t-6 -89v-25h127v-19h-127v-481h-19v481h-90v18h90v34q0 56 8 91t26 53.5t40 24.5t58 7z" />
    <glyph glyph-name="g" unicode="g" 
d="M50 176v157q0 28 4.5 52t12 42t18.5 32t23.5 23.5t27 15.5t29.5 8.5t31 2.5q27 0 50.5 -8.5t43.5 -28t32 -48.5v76h19v-500q-1 -47 -13.5 -81.5t-33.5 -53.5t-45.5 -28t-52.5 -9q-47 0 -84 23.5t-52 76.5h21q27 -82 115 -82q126 0 126 166v76q-34 -88 -126 -88
q-23 0 -43 5t-39.5 18t-33 32.5t-22 50.5t-8.5 70zM322 184v141q0 166 -126 166q-25 0 -46.5 -7.5t-40.5 -25t-29.5 -51.5t-10.5 -82v-141q0 -91 35.5 -128.5t91.5 -37.5q126 0 126 166z" />
    <glyph glyph-name="h" unicode="h" horiz-adv-x="409" 
d="M82 700v-279q17 45 50 66.5t76 21.5q29 0 53.5 -9t46 -28t34 -54.5t12.5 -84.5v-333h-19v325q0 48 -10.5 82t-29.5 51.5t-40.5 25t-46.5 7.5q-126 0 -126 -166v-325h-19v700h19z" />
    <glyph glyph-name="i" unicode="i" horiz-adv-x="150" 
d="M63 597v28h27v-28h-27zM67 0v500h19v-500h-19z" />
    <glyph glyph-name="j" unicode="j" horiz-adv-x="269" 
d="M184 624h25v-26h-25v26zM187 500h19v-497q0 -57 -8 -92.5t-26.5 -53.5t-41 -24t-59.5 -6h-11v18h11q34 0 53 5t35 21.5t22 50t6 89.5v489z" />
    <glyph glyph-name="k" unicode="k" horiz-adv-x="364" 
d="M319 0h-24l-218 245v-245h-19v700h19v-435l207 235h24l-217 -245z" />
    <glyph glyph-name="l" unicode="l" horiz-adv-x="137" 
d="M63 0v700h19v-700h-19z" />
    <glyph glyph-name="m" unicode="m" horiz-adv-x="676" 
d="M79 500v-79q11 30 31 50t43.5 29t51.5 9q48 0 85.5 -25.5t52.5 -81.5q15 54 50 80.5t82 26.5q29 0 53.5 -9t46 -28t34 -54.5t12.5 -84.5v-333h-18v325q0 48 -11 82t-30 51.5t-40 25t-47 7.5q-114 0 -124 -135v-356h-19v325q0 48 -10.5 82t-29.5 51.5t-40.5 25t-46.5 7.5
q-126 0 -126 -166v-325h-19v500h19z" />
    <glyph glyph-name="n" unicode="n" horiz-adv-x="406" 
d="M79 500v-79q17 45 50 66.5t76 21.5q29 0 53.5 -9t46 -28t34 -54.5t12.5 -84.5v-333h-19v325q0 48 -10.5 82t-29.5 51.5t-40.5 25t-46.5 7.5q-126 0 -126 -166v-325h-19v500h19z" />
    <glyph glyph-name="o" unicode="o" horiz-adv-x="391" 
d="M50 168v165q0 93 41.5 134.5t103.5 41.5q23 0 43 -5t39.5 -18t33 -32.5t22 -50.5t8.5 -70v-165q0 -49 -12.5 -84.5t-34 -54.5t-46 -28t-53.5 -9t-53.5 9t-45.5 28.5t-33.5 55t-12.5 83.5zM322 176v149q0 48 -10.5 82t-29.5 51.5t-40.5 25t-46.5 7.5q-126 0 -126 -166
v-149q0 -166 126 -166q56 0 91.5 37.5t35.5 128.5z" />
    <glyph glyph-name="p" unicode="p" 
d="M77 500v-80q34 88 126 88q29 0 53.5 -9t46 -28t34 -54.5t12.5 -84.5v-165q0 -49 -12.5 -84.5t-34 -54.5t-46 -28t-53.5 -9q-42 0 -75.5 21t-50.5 64v-239h-19v663h19zM330 175v149q0 91 -35.5 128.5t-91.5 37.5q-126 0 -126 -166v-149q0 -166 126 -166q25 0 46.5 7.5
t40.5 25t29.5 51.5t10.5 82z" />
    <glyph glyph-name="q" unicode="q" 
d="M322 500h19v-663h-19v239q-17 -43 -50.5 -64t-75.5 -21q-23 0 -43 5t-39.5 18t-33 32.5t-22 50.5t-8.5 70v165q0 39 8.5 70t22 50.5t33 32.5t39.5 18t43 5q92 0 126 -88v80zM69 324v-149q0 -48 10.5 -82t29.5 -51.5t40.5 -25t46.5 -7.5q126 0 126 166v149q0 166 -126 166
q-56 0 -91.5 -37.5t-35.5 -128.5z" />
    <glyph glyph-name="r" unicode="r" horiz-adv-x="255" 
d="M79 500v-92q12 33 32 56t45 34t54 11v-17q-56 0 -93.5 -46.5t-37.5 -132.5v-313h-19v500h19z" />
    <glyph glyph-name="s" unicode="s" horiz-adv-x="384" 
d="M64 144v-7q2 -68 39 -97.5t89 -29.5q128 0 128 120q0 50 -29 80t-85 49q-2 1 -20.5 7t-24.5 8t-23 9.5t-24 13t-19 15.5t-17.5 21t-10 26t-4.5 32q0 61 38.5 89.5t96.5 28.5q52 0 92 -35.5t44 -106.5v-10h-19v12q-2 44 -20 72.5t-42.5 39t-54.5 10.5q-116 0 -116 -100
q0 -20 7.5 -36.5t16 -26.5t26 -19.5t26 -13t28 -10t21.5 -6.5q70 -23 101 -59t31 -90q0 -48 -21.5 -80t-53 -45t-72.5 -13q-25 0 -49 8t-46 24t-36 45t-16 67v8h19z" />
    <glyph glyph-name="t" unicode="t" horiz-adv-x="326" 
d="M154 483v-299q0 -41 2.5 -70t9.5 -48.5t15 -31t23 -17t29 -7t37 -1.5h11v-18h-12q-25 0 -41 2.5t-33 8.5t-26.5 18.5t-18 33t-12 50.5t-3.5 72v307h-90v17h90v153h19v-153h127v-17h-127z" />
    <glyph glyph-name="u" unicode="u" horiz-adv-x="401" 
d="M327 500h19v-500h-19v79q-17 -45 -50 -66.5t-76 -21.5q-29 0 -53.5 9t-46 28t-34 54.5t-12.5 84.5v333h19v-325q0 -48 10.5 -82t29.5 -51.5t40.5 -25t46.5 -7.5q126 0 126 166v325z" />
    <glyph glyph-name="v" unicode="v" horiz-adv-x="453" 
d="M388 500h20l-171 -500h-21l-171 500h20l162 -473z" />
    <glyph glyph-name="w" unicode="w" horiz-adv-x="696" 
d="M632 500h19l-141 -500h-20l-142 468l-141 -468h-21l-141 500h20l132 -468l141 468h20l142 -468z" />
    <glyph glyph-name="x" unicode="x" horiz-adv-x="390" 
d="M345 500l-141 -249l141 -251h-21l-129 231l-129 -231h-21l140 249l-140 251h21l129 -231l129 231h21z" />
    <glyph glyph-name="y" unicode="y" horiz-adv-x="381" 
d="M317 500h19v-513q-4 -84 -45 -121.5t-100 -37.5q-47 0 -83.5 23.5t-52.5 76.5h21q27 -82 115 -82q126 0 126 166v76q-17 -45 -50 -66.5t-76 -21.5q-23 0 -43 5t-39.5 18t-33 32.5t-22 50.5t-8.5 70v324h19v-316q0 -48 10.5 -82t29.5 -51.5t40.5 -25t46.5 -7.5
q126 0 126 166v316z" />
    <glyph glyph-name="z" unicode="z" horiz-adv-x="386" 
d="M67 18h274v-18h-296v18l273 463h-262v19h284v-18z" />
    <glyph glyph-name="braceleft" unicode="{" horiz-adv-x="344" 
d="M234 750h60v-19h-60q-21 0 -36 -16t-15 -41v-255q0 -39 -22 -69.5t-58 -44.5q36 -14 58 -44.5t22 -69.5v-256q0 -25 15 -40.5t36 -15.5h60v-19h-60q-29 0 -50 21.5t-21 54.5v255q0 43 -30.5 72.5t-77.5 31.5h-5v20h5q47 1 77.5 30.5t30.5 73.5v255q0 33 21 54.5t50 21.5z
" />
    <glyph glyph-name="bar" unicode="|" horiz-adv-x="119" 
d="M50 700h19v-760h-19v760z" />
    <glyph glyph-name="braceright" unicode="}" horiz-adv-x="344" 
d="M50 750h60q19 0 35 -9.5t26 -27t10 -39.5v-255q0 -43 30.5 -72.5t77.5 -31.5h5v-20h-5q-47 -1 -77.5 -30.5t-30.5 -73.5v-255q0 -33 -21 -54.5t-50 -21.5h-60v20h60q21 0 36 15.5t15 40.5v255q0 39 22 69.5t58 44.5q-36 14 -58 44.5t-22 69.5v255q0 17 -7 29.5
t-18.5 19.5t-25.5 7h-60v20z" />
    <glyph glyph-name="asciitilde" unicode="~" horiz-adv-x="577" 
d="M70 198h-20q0 60 31 99t85 39q53 0 110 -46q3 -3 24.5 -20.5t29 -22.5t25.5 -15.5t34.5 -14.5t34.5 -4q41 0 62.5 30t21.5 76h19q0 -55 -27.5 -90t-75.5 -35q-17 0 -34.5 4t-29 8t-28 15t-23 15.5t-24 19t-21.5 17.5q-52 43 -98 43t-71 -33.5t-25 -84.5z" />
    <glyph glyph-name="exclamdown" unicode="&#xa1;" horiz-adv-x="127" 
d="M50 538h27v-28h-27v28zM55 398h16v-320l2 -241h-18v561z" />
    <glyph glyph-name="cent" unicode="&#xa2;" horiz-adv-x="391" 
d="M185 601h20v-92q57 -3 95 -42t41 -122v-12h-19q-1 45 -12 77.5t-30 49.5t-39.5 24t-45.5 7q-126 0 -126 -166v-149q0 -166 126 -166q124 0 127 158h19v-11q-3 -83 -41 -122.5t-95 -42.5v-90h-20v90q-27 2 -50 11.5t-42.5 29.5t-31 54.5t-11.5 80.5v165q0 46 11.5 80.5
t31 54t42.5 29.5t50 12v92z" />
    <glyph glyph-name="sterling" unicode="&#xa3;" horiz-adv-x="550" 
d="M505 477h-19v8q-3 47 -14.5 83.5t-28 59t-39.5 37t-46.5 20t-50.5 5.5q-37 0 -67.5 -10.5t-57.5 -35.5t-42 -72.5t-15 -114.5v-90h168v-20h-168v-327h352v-20h-432v20h60v327h-60v20h60v106q1 65 18.5 112.5t47 73.5t63.5 38t73 12q38 0 70 -11t61 -35.5t46.5 -69.5
t20.5 -106v-10z" />
    <glyph glyph-name="currency" unicode="&#xa4;" horiz-adv-x="600" 
 />
    <glyph glyph-name="yen" unicode="&#xa5;" horiz-adv-x="563" 
d="M501 700h22l-178 -292h144v-20h-156l-40 -67v-20h196v-20h-198v-281h-20v281h-196v20h195v20l-40 67h-155v20h143l-178 292h23l218 -359z" />
    <glyph glyph-name="brokenbar" unicode="&#xa6;" horiz-adv-x="119" 
d="M50 700h19v-320h-19v320zM50 260h19v-320h-19v320z" />
    <glyph glyph-name="section" unicode="&#xa7;" horiz-adv-x="425" 
d="M70 80v-4q0 -27 6.5 -50t17.5 -38.5t24.5 -27.5t30 -18.5t32 -9.5t31.5 -3q65 0 104 31.5t39 99.5q0 31 -10 55t-30 40.5t-41 27t-51 20.5q-4 2 -19 6.5t-22.5 7t-21.5 8.5t-22.5 11t-20 13t-18.5 17.5t-13.5 21t-10 26.5t-3.5 32q0 82 69 113q-69 37 -69 112
q0 66 42.5 97.5t102.5 31.5q59 0 102.5 -39.5t45.5 -119.5v-7h-19v7q-2 71 -39.5 105.5t-89.5 34.5q-54 0 -89.5 -26.5t-35.5 -83.5q0 -16 4 -30t9 -24t16 -20t18 -15t22.5 -12t22 -9t24.5 -8t22 -7q30 -11 53 -22.5t45.5 -30t34 -46t11.5 -62.5q0 -75 -48 -114
q48 -42 48 -111q0 -51 -23 -85.5t-58.5 -49.5t-80.5 -15q-26 0 -52.5 9t-51.5 27t-41 52t-17 78v4h20zM164 448q-72 -23 -72 -102q0 -16 4 -30.5t9 -24.5t16 -19.5t18 -14.5t22.5 -12t22 -9.5t24.5 -8t22 -6.5q51 -18 81 -39q44 33 44 103q0 31 -10 55.5t-30 40.5t-41 26.5
t-51 20.5q-56 19 -59 20z" />
    <glyph glyph-name="dieresis" unicode="&#xa8;" horiz-adv-x="218" 
d="M50 672v28h27v-28h-27zM142 672v28h26v-28h-26z" />
    <glyph glyph-name="copyright" unicode="&#xa9;" horiz-adv-x="590" 
d="M295 700q111 0 188 -80t77 -190t-77 -190t-188 -80q-73 0 -134.5 37t-96 99t-34.5 134q0 110 77 190t188 80zM295 682q-70 0 -127 -34t-88 -91.5t-31 -126.5q0 -105 70 -178t176 -73t176.5 73t70.5 178t-70.5 178.5t-176.5 73.5zM173 418v22q0 93 34 134.5t88 41.5
q106 0 125 -126v-2h-20q-6 41 -22 66.5t-36 34.5t-47 9q-48 0 -75.5 -36.5t-27.5 -129.5v-6q0 -92 27 -129t76 -37q42 0 69 24.5t36 84.5h20v-2q-19 -125 -125 -125q-54 0 -88 41.5t-34 134.5z" />
    <glyph glyph-name="ordfeminine" unicode="&#xaa;" 
d="M322 500h19v-500h-19v80q-34 -88 -126 -88q-29 0 -53.5 9t-46 28t-34 54.5t-12.5 84.5v165q0 49 12.5 84.5t34 54.5t46 28t53.5 9q42 0 75.5 -21t50.5 -64v76zM69 325v-149q0 -91 35.5 -128.5t91.5 -37.5q126 0 126 166v149q0 166 -126 166q-25 0 -46.5 -7.5t-40.5 -25
t-29.5 -51.5t-10.5 -82z" />
    <glyph glyph-name="guillemotleft" unicode="&#xab;" horiz-adv-x="332" 
d="M50 291l116 92v-26l-100 -79l100 -78v-26l-116 92v25zM166 291l116 92v-26l-101 -79l101 -78v-26l-116 92v25z" />
    <glyph glyph-name="logicalnot" unicode="&#xac;" horiz-adv-x="514" 
d="M464 177h-20v125h-394v20h414v-145z" />
    <glyph glyph-name="registered" unicode="&#xae;" horiz-adv-x="590" 
d="M295 700q111 0 188 -80t77 -190t-77 -190t-188 -80t-188 80t-77 190t77 190t188 80zM295 682q-70 0 -127 -34t-88 -91.5t-31 -126.5q0 -105 70 -178t176 -73t176.5 73t70.5 178t-70.5 178.5t-176.5 73.5zM201 611h97q46 0 77.5 -26.5t31.5 -70.5v-3q-1 -38 -27 -63
t-64 -30l109 -171h-24l-108 170h-72v-170h-20v364zM221 437h78q39 0 63 20.5t24 56.5t-24 56.5t-63 20.5h-78v-154z" />
    <glyph glyph-name="macron" unicode="&#xaf;" horiz-adv-x="391" 
d="M50 700h291v-20h-291v20z" />
    <glyph glyph-name="degree" unicode="&#xb0;" horiz-adv-x="337" 
d="M168 708q49 0 84 -34.5t35 -83.5q0 -50 -35 -84.5t-84 -34.5t-83.5 34.5t-34.5 84.5q0 49 34.5 83.5t83.5 34.5zM168 687q-41 0 -69 -28.5t-28 -69t28 -69t69 -28.5t69.5 28.5t28.5 69t-28.5 69t-69.5 28.5z" />
    <glyph glyph-name="plusminus" unicode="&#xb1;" horiz-adv-x="514" 
d="M247 517h20v-148h197v-20h-197v-147h-20v147h-197v20h197v148zM464 0h-414v19h414v-19z" />
    <glyph glyph-name="acute" unicode="&#xb4;" horiz-adv-x="202" 
d="M110 700h42l-80 -110h-22z" />
    <glyph glyph-name="paragraph" unicode="&#xb6;" horiz-adv-x="526" 
d="M193 700h288v-20h-38v-843h-19v843h-117v-843h-20v471h-94q-41 0 -75 19.5t-53.5 53.5t-19.5 75v96q0 59 43.5 103.5t104.5 44.5z" />
    <glyph glyph-name="periodcentered" unicode="&#xb7;" horiz-adv-x="127" 
d="M50 297v28h27v-28h-27z" />
    <glyph glyph-name="cedilla" unicode="&#xb8;" horiz-adv-x="213" 
d="M143 0h20v-69q0 -50 -19 -73t-63 -23h-31v20h31q34 0 48 17.5t14 58.5v69z" />
    <glyph glyph-name="ordmasculine" unicode="&#xba;" horiz-adv-x="391" 
d="M50 168v165q0 93 41.5 134.5t103.5 41.5q23 0 43 -5t39.5 -18t33 -32.5t22 -50.5t8.5 -70v-165q0 -49 -12.5 -84.5t-34 -54.5t-46 -28t-53.5 -9t-53.5 9t-45.5 28.5t-33.5 55t-12.5 83.5zM322 176v149q0 48 -10.5 82t-29.5 51.5t-40.5 25t-46.5 7.5q-126 0 -126 -166
v-149q0 -166 126 -166q56 0 91.5 37.5t35.5 128.5z" />
    <glyph glyph-name="guillemotright" unicode="&#xbb;" horiz-adv-x="332" 
d="M166 357v26l116 -92v-25l-116 -91v25l100 78zM50 357v26l116 -92v-25l-116 -91v25l100 78z" />
    <glyph glyph-name="onequarter" unicode="&#xbc;" horiz-adv-x="570" 
d="M50 700h54v-338h-20v319h-34v19zM408 700h20l-337 -700h-19zM444 338h22l-140 -240h135v160h20v-160h39v-19h-39v-79h-20v79h-158v19z" />
    <glyph glyph-name="onehalf" unicode="&#xbd;" horiz-adv-x="612" 
d="M50 700h54v-338h-20v319h-34v19zM408 700h20l-337 -700h-19zM457 341h14q15 0 30 -5.5t29 -17t23 -31t9 -44.5v-2q0 -33 -19 -58t-46 -40.5l-54 -31t-46 -38.5t-19 -53h180v-20h-199v19q0 29 13.5 52t34 37t44 29t44 28t34 33t13.5 45q0 29 -13 48t-28 25t-30 6h-5
q-28 0 -53 -17.5t-33 -52.5h-20l1 4q9 41 36.5 61.5t59.5 23.5z" />
    <glyph glyph-name="threequarters" unicode="&#xbe;" horiz-adv-x="635" 
d="M483 700h20l-336 -700h-20zM139 700h15q29 0 58.5 -20.5t29.5 -58.5v-8q0 -26 -18 -45.5t-43 -24.5q65 -23 65 -86v-9q0 -38 -28 -61.5t-64 -23.5h-15q-30 0 -60.5 23.5t-38.5 66.5v2h20q7 -37 31.5 -55t53.5 -18h9q28 0 50 17.5t22 50.5v4q0 37 -22.5 58.5t-54.5 21.5
h-34v19h34q16 0 31.5 5.5t28.5 20.5t13 36v4q0 31 -22 46.5t-46 15.5h-9q-27 0 -51 -16.5t-31 -50.5h-21v2q9 41 37.5 62t59.5 22zM509 338h22l-140 -240h135v160h20v-160h39v-19h-39v-79h-20v79h-158v19z" />
    <glyph glyph-name="questiondown" unicode="&#xbf;" horiz-adv-x="498" 
d="M283 518h-27v28h27v-28zM253 -163h-19q-32 0 -63 10.5t-59 32t-45 60t-17 88.5v2q0 30 7 55t19.5 42t28 31t33 25t34.5 22t33 23.5t28 27t19 35t7 46.5h22q0 -35 -12 -62t-30.5 -44.5t-41 -31.5t-45 -29t-41 -32.5t-30.5 -45.5t-12 -64q0 -48 16 -83t41.5 -53.5t52.5 -27
t55 -8.5h10q18 0 36.5 3t37 10.5t35.5 20t32 29t26 40t16 52.5h21l-1 -6q-6 -29 -18 -53.5t-27.5 -42.5t-33.5 -31.5t-37.5 -22t-39 -13t-38.5 -5.5z" />
    <glyph glyph-name="Agrave" unicode="&#xc0;" horiz-adv-x="553" 
d="M226 900h42l60 -110h-22zM266 700h21l206 -700h-19l-75 251h-245l-74 -251h-20zM393 272l-116 396l-117 -396h233z" />
    <glyph glyph-name="Aacute" unicode="&#xc1;" horiz-adv-x="553" 
d="M286 900h42l-80 -110h-22zM266 700h21l206 -700h-19l-75 251h-245l-74 -251h-20zM393 272l-116 396l-117 -396h233z" />
    <glyph glyph-name="Acircumflex" unicode="&#xc2;" horiz-adv-x="553" 
d="M263 900h28l114 -125h-28l-100 109l-100 -109h-28zM266 700h21l206 -700h-19l-75 251h-245l-74 -251h-20zM393 272l-116 396l-117 -396h233z" />
    <glyph glyph-name="Atilde" unicode="&#xc3;" horiz-adv-x="553" 
d="M383 900h20v-19t-1 -19.5t-3 -21t-6 -18t-9.5 -16t-14.5 -10t-21 -4.5q-17 0 -35 11t-47 42q-21 23 -32.5 29t-26.5 6t-22.5 -10t-10 -28t-2.5 -50h-20q0 15 0.5 22.5t1.5 23t4.5 24t9.5 19t16 15t23 4.5q11 0 21 -3.5t21 -12t18 -15.5l22 -22q14 -17 26.5 -25t18 -9
t14.5 -1q15 0 22.5 10.5t10 28t2.5 49.5zM266 700h21l206 -700h-19l-74 251h-246l-74 -251h-20zM393 272l-116 396l-117 -396h233z" />
    <glyph glyph-name="Adieresis" unicode="&#xc4;" horiz-adv-x="553" 
d="M218 900h27v-28h-27v28zM310 900h27v-28h-27v28zM266 700h21l206 -700h-19l-75 251h-245l-74 -251h-20zM393 272l-116 396l-117 -396h233z" />
    <glyph glyph-name="Aring" unicode="&#xc5;" horiz-adv-x="553" 
d="M277 900q37 0 63 -26.5t26 -61.5q0 -38 -26 -64t-63 -26t-62.5 26t-25.5 64q0 36 25.5 62t62.5 26zM277 880q-19 0 -35 -9.5t-24.5 -25t-8.5 -33.5q0 -30 19.5 -50t48.5 -20t49 20.5t20 49.5q0 27 -20.5 47.5t-48.5 20.5zM266 700h21l206 -700h-19l-75 251h-245l-74 -251
h-20zM393 272l-116 396l-117 -396h233z" />
    <glyph glyph-name="AE" unicode="&#xc6;" horiz-adv-x="608" 
d="M265 700h303v-19h-283v-309h273v-19h-273v-334h283v-19h-303v251h-111l-74 -251h-20zM265 272v357l-105 -357h105z" />
    <glyph glyph-name="Ccedilla" unicode="&#xc7;" horiz-adv-x="520" 
d="M80 234v233q0 66 17 115t47 75.5t64 39t74 12.5q38 0 70 -11t60.5 -35t46.5 -68.5t21 -104.5v-13h-19l-1 13q-4 57 -20 97.5t-41.5 62t-54 31t-62.5 9.5q-37 0 -67.5 -10.5t-57.5 -35.5t-42 -72.5t-15 -114.5v-213q0 -67 15 -114.5t42 -72.5t57.5 -36t67.5 -11
q34 0 62 9.5t53.5 31t41.5 61t21 95.5l1 17h19v-11q-5 -104 -50 -156t-113 -62v-64q0 -50 -19 -73t-63 -23h-31v20h31q34 0 48 17.5t14 58.5v61h-15q-40 0 -74 12t-64 39t-47 75.5t-17 115.5z" />
    <glyph glyph-name="Egrave" unicode="&#xc8;" horiz-adv-x="423" 
d="M161 900h42l60 -110h-22zM80 700h303v-19h-283v-309h273v-19h-273v-334h283v-19h-303v700z" />
    <glyph glyph-name="Eacute" unicode="&#xc9;" horiz-adv-x="423" 
d="M221 900h42l-80 -110h-22zM80 700h303v-19h-283v-309h273v-19h-273v-334h283v-19h-303v700z" />
    <glyph glyph-name="Ecircumflex" unicode="&#xca;" horiz-adv-x="423" 
d="M198 900h28l114 -125h-28l-100 109l-100 -109h-28zM80 700h303v-19h-283v-309h273v-19h-273v-334h283v-19h-303v700z" />
    <glyph glyph-name="Edieresis" unicode="&#xcb;" horiz-adv-x="423" 
d="M153 900h27v-28h-27v28zM245 900h27v-28h-27v28zM80 700h303v-19h-283v-309h273v-19h-273v-334h283v-19h-303v700z" />
    <glyph glyph-name="Igrave" unicode="&#xcc;" horiz-adv-x="180" 
d="M39 900h42l60 -110h-22zM80 0v700h20v-700h-20z" />
    <glyph glyph-name="Iacute" unicode="&#xcd;" horiz-adv-x="180" 
d="M99 900h42l-80 -110h-22zM80 0v700h20v-700h-20z" />
    <glyph glyph-name="Icircumflex" unicode="&#xce;" horiz-adv-x="180" 
d="M76 900h28l114 -125h-28l-100 109l-100 -109h-28zM80 0v700h20v-700h-20z" />
    <glyph glyph-name="Idieresis" unicode="&#xcf;" horiz-adv-x="180" 
d="M31 872v28h27v-28h-27zM123 872v28h27v-28h-27zM80 0v700h20v-700h-20z" />
    <glyph glyph-name="Eth" unicode="&#xd0;" horiz-adv-x="529" 
d="M80 700h171q39 0 73.5 -12t64.5 -38.5t47.5 -75.5t17.5 -116v-216q0 -67 -17.5 -116t-47.5 -75.5t-64.5 -38.5t-73.5 -12h-171v327h-48v20h48v353zM435 252v196q0 67 -15.5 114.5t-43 72.5t-58 35.5t-67.5 10.5h-151v-334h180v-20h-180v-308h151q37 0 67.5 10.5t58 35.5
t43 72.5t15.5 114.5z" />
    <glyph glyph-name="Ntilde" unicode="&#xd1;" horiz-adv-x="515" 
d="M365 900h20v-19t-1 -19.5t-3 -21t-6 -18t-9.5 -16t-14.5 -10t-21 -4.5q-17 0 -35 11t-47 42q-21 23 -32.5 29t-26.5 6t-22.5 -10t-10 -28t-2.5 -50h-20q0 15 0.5 22.5t1.5 23t4.5 24t9.5 19t16 15t23 4.5q15 0 29.5 -8t24 -16.5t28.5 -28.5q14 -17 26.5 -25t18 -9
t14.5 -1q15 0 22.5 10.5t10 28t2.5 49.5zM418 700h20v-700h-20l-321 660v-660h-20v700h20l321 -660v660z" />
    <glyph glyph-name="Ograve" unicode="&#xd2;" horiz-adv-x="545" 
d="M222 900h42l60 -110h-22zM70 234v233q0 67 17 115.5t47 75t64 39t74 12.5q39 0 73.5 -12t64.5 -38.5t47.5 -75.5t17.5 -116v-233q0 -67 -17.5 -116t-47.5 -75.5t-64.5 -38.5t-73.5 -12q-40 0 -74 12.5t-64 39t-47 75t-17 115.5zM456 244v213q0 67 -15.5 114.5t-43 72.5
t-58 35.5t-67.5 10.5t-67.5 -10.5t-57.5 -35.5t-42 -72.5t-15 -114.5v-213q0 -67 15 -114.5t42 -72.5t57.5 -35.5t67.5 -10.5t67.5 10.5t58 35.5t43 72.5t15.5 114.5z" />
    <glyph glyph-name="Oacute" unicode="&#xd3;" horiz-adv-x="545" 
d="M282 900h42l-80 -110h-22zM70 234v233q0 67 17 115.5t47 75t64 39t74 12.5q39 0 73.5 -12t64.5 -38.5t47.5 -75.5t17.5 -116v-233q0 -67 -17.5 -116t-47.5 -75.5t-64.5 -38.5t-73.5 -12q-40 0 -74 12.5t-64 39t-47 75t-17 115.5zM456 244v213q0 67 -15.5 114.5t-43 72.5
t-58 35.5t-67.5 10.5t-67.5 -10.5t-57.5 -35.5t-42 -72.5t-15 -114.5v-213q0 -67 15 -114.5t42 -72.5t57.5 -35.5t67.5 -10.5t67.5 10.5t58 35.5t43 72.5t15.5 114.5z" />
    <glyph glyph-name="Ocircumflex" unicode="&#xd4;" horiz-adv-x="545" 
d="M259 900h28l114 -125h-28l-100 109l-100 -109h-28zM70 234v233q0 67 17 115.5t47 75t64 39t74 12.5q39 0 73.5 -12t64.5 -38.5t47.5 -75.5t17.5 -116v-233q0 -67 -17.5 -116t-47.5 -75.5t-64.5 -38.5t-73.5 -12q-40 0 -74 12.5t-64 39t-47 75t-17 115.5zM456 244v213
q0 67 -15.5 114.5t-43 72.5t-58 35.5t-67.5 10.5t-67.5 -10.5t-57.5 -35.5t-42 -72.5t-15 -114.5v-213q0 -67 15 -114.5t42 -72.5t57.5 -35.5t67.5 -10.5t67.5 10.5t58 35.5t43 72.5t15.5 114.5z" />
    <glyph glyph-name="Otilde" unicode="&#xd5;" horiz-adv-x="545" 
d="M380 900h20v-19t-1 -19.5t-3 -21t-6 -18t-9.5 -16t-14.5 -10t-21 -4.5q-17 0 -35 11t-47 42q-21 23 -32.5 29t-26.5 6q-21 0 -28 -20t-7 -68h-20q0 15 0.5 22.5t1.5 23t4.5 24t9.5 19t16 15t23 4.5q15 0 29.5 -8t24 -16.5t28.5 -28.5q15 -17 27 -25t17.5 -9t14.5 -1
q15 0 22.5 10.5t10 28t2.5 49.5zM70 234v233q0 67 17 115.5t47 75t64 39t74 12.5q39 0 73.5 -12t64.5 -38.5t47.5 -75.5t17.5 -116v-233q0 -67 -17.5 -116t-47.5 -75.5t-64.5 -38.5t-73.5 -12q-40 0 -74 12.5t-64 39t-47 75t-17 115.5zM456 244v213q0 67 -15.5 114.5
t-43 72.5t-58 35.5t-67.5 10.5t-67.5 -10.5t-57.5 -35.5t-42 -72.5t-15 -114.5v-213q0 -67 15 -114.5t42 -72.5t57.5 -35.5t67.5 -10.5t67.5 10.5t58 35.5t43 72.5t15.5 114.5z" />
    <glyph glyph-name="Odieresis" unicode="&#xd6;" horiz-adv-x="545" 
d="M214 872v28h27v-28h-27zM306 872v28h27v-28h-27zM70 234v233q0 67 17 115.5t47 75t64 39t74 12.5q39 0 73.5 -12t64.5 -38.5t47.5 -75.5t17.5 -116v-233q0 -67 -17.5 -116t-47.5 -75.5t-64.5 -38.5t-73.5 -12q-40 0 -74 12.5t-64 39t-47 75t-17 115.5zM456 244v213
q0 67 -15.5 114.5t-43 72.5t-58 35.5t-67.5 10.5t-67.5 -10.5t-57.5 -35.5t-42 -72.5t-15 -114.5v-213q0 -67 15 -114.5t42 -72.5t57.5 -35.5t67.5 -10.5t67.5 10.5t58 35.5t43 72.5t15.5 114.5z" />
    <glyph glyph-name="multiply" unicode="&#xd7;" horiz-adv-x="405" 
d="M203 326l139 139l13 -14l-139 -139l139 -139l-13 -14l-139 140l-139 -140l-14 14l139 139l-139 139l14 14z" />
    <glyph glyph-name="Oslash" unicode="&#xd8;" horiz-adv-x="545" 
d="M464 750l-45 -101q56 -62 56 -182v-233q0 -67 -17.5 -116t-47.5 -75.5t-64.5 -38.5t-73.5 -12q-80 0 -132 45l-39 -87h-20l46 101q-57 62 -57 183v233q0 67 17 115.5t47 75t64 39t74 12.5q81 0 133 -46l39 87h20zM90 457v-213q0 -115 46 -174l261 574q-47 46 -125 46
q-37 0 -67.5 -10.5t-57.5 -35.5t-42 -72.5t-15 -114.5zM456 244v213q0 113 -46 173l-261 -575q45 -44 123 -44q37 0 67.5 10.5t58 35.5t43 72.5t15.5 114.5z" />
    <glyph glyph-name="Ugrave" unicode="&#xd9;" horiz-adv-x="556" 
d="M227 900h42l60 -110h-22zM100 244v456h-20v-466q0 -66 17 -114.5t46 -75.5t63 -39.5t73 -12.5t73 12.5t63.5 39.5t46.5 75.5t17 114.5v466h-19v-456q0 -52 -10.5 -93t-27.5 -67t-40.5 -43t-48.5 -23.5t-54 -6.5q-37 0 -67.5 11.5t-56.5 37t-40.5 72.5t-14.5 112z" />
    <glyph glyph-name="Uacute" unicode="&#xda;" horiz-adv-x="556" 
d="M287 900h42l-80 -110h-22zM100 244v456h-20v-466q0 -66 17 -114.5t46 -75.5t63 -39.5t73 -12.5t73 12.5t63.5 39.5t46.5 75.5t17 114.5v466h-19v-456q0 -52 -10.5 -93t-27.5 -67t-40.5 -43t-48.5 -24t-54 -7q-37 0 -67.5 12t-56.5 37.5t-40.5 72.5t-14.5 112z" />
    <glyph glyph-name="Ucircumflex" unicode="&#xdb;" horiz-adv-x="556" 
d="M264 900h28l114 -125h-28l-100 109l-100 -109h-28zM100 244v456h-20v-466q0 -66 17 -114.5t46 -75.5t63 -39.5t73 -12.5t73 12.5t63.5 39.5t46.5 75.5t17 114.5v466h-19v-456q0 -52 -10.5 -93t-27.5 -67t-40.5 -43t-48.5 -23.5t-54 -6.5q-37 0 -67.5 11.5t-56.5 37
t-40.5 72.5t-14.5 112z" />
    <glyph glyph-name="Udieresis" unicode="&#xdc;" horiz-adv-x="556" 
d="M220 872v28h26v-28h-26zM311 872v28h27v-28h-27zM100 244v456h-20v-466q0 -66 17 -114.5t46 -75.5t63 -39.5t73 -12.5t73 12.5t63.5 39.5t46.5 75.5t17 114.5v466h-19v-456q0 -52 -10.5 -93t-27.5 -67t-40.5 -43t-48.5 -24t-54 -7q-37 0 -67.5 12t-56.5 37.5t-40.5 72.5
t-14.5 112z" />
    <glyph glyph-name="Yacute" unicode="&#xdd;" horiz-adv-x="507" 
d="M263 900h42l-80 -110h-22zM424 700h23l-186 -401v-299h-20v299l-181 401h22l169 -379z" />
    <glyph glyph-name="Thorn" unicode="&#xde;" horiz-adv-x="476" 
d="M80 709h20v-128h101q38 0 72 -9t63.5 -28t47 -54t17.5 -81v-21q0 -45 -17.5 -79.5t-47 -54t-64 -29t-71.5 -9.5h-101v-216h-20v709zM381 393v11q0 46 -15 78.5t-42.5 49t-57 23.5t-65.5 7h-101v-327h101q35 0 65 7.5t57 24t42.5 49t15.5 77.5z" />
    <glyph glyph-name="germandbls" unicode="&#xdf;" horiz-adv-x="506" 
d="M235 700h32q30 0 60.5 -9.5t58 -28t44.5 -51.5t17 -76v-17q0 -60 -32.5 -98.5t-87.5 -55.5q66 -15 102.5 -58.5t36.5 -110.5v-18q0 -85 -56.5 -131t-153.5 -46h-101v19h101q90 0 140 40.5t50 117.5v18q0 77 -50 117.5t-140 40.5h-40v19h31q78 0 129 36.5t51 109.5v17
q0 38 -14.5 67.5t-39 46t-51.5 24.5t-55 8h-32q-28 0 -55.5 -8t-51.5 -24.5t-38.5 -46t-14.5 -67.5v-535h-20v535q0 43 17 76t44.5 51.5t57.5 28t61 9.5z" />
    <glyph glyph-name="agrave" unicode="&#xe0;" 
d="M149 700h42l60 -110h-22zM50 168v165q0 49 12.5 84.5t34 54.5t46 28t53.5 9q28 0 51.5 -8.5t43 -28t31.5 -48.5v76h19v-500h-19v80q-34 -88 -126 -88q-29 0 -53.5 9t-46 28t-34 54.5t-12.5 84.5zM322 176v149q0 166 -126 166q-25 0 -46.5 -7.5t-40.5 -25t-29.5 -51.5
t-10.5 -82v-149q0 -91 35.5 -128.5t91.5 -37.5q126 0 126 166z" />
    <glyph glyph-name="aacute" unicode="&#xe1;" 
d="M209 700h42l-80 -110h-22zM322 500h19v-500h-19v80q-34 -88 -126 -88q-29 0 -53.5 9t-46 28t-34 54.5t-12.5 84.5v165q0 49 12.5 84.5t34 54.5t46 28t53.5 9q42 0 75.5 -21t50.5 -64v76zM69 325v-149q0 -91 35.5 -128.5t91.5 -37.5q126 0 126 166v149q0 166 -126 166
q-25 0 -46.5 -7.5t-40.5 -25t-29.5 -51.5t-10.5 -82z" />
    <glyph glyph-name="acircumflex" unicode="&#xe2;" 
d="M186 700h28l114 -125h-28l-100 109l-100 -109h-28zM322 500h19v-500h-19v80q-34 -88 -126 -88q-29 0 -53.5 9t-46 28t-34 54.5t-12.5 84.5v165q0 49 12.5 84.5t34 54.5t46 28t53.5 9q42 0 75.5 -21t50.5 -64v76zM69 325v-149q0 -91 35.5 -128.5t91.5 -37.5q126 0 126 166
v149q0 166 -126 166q-25 0 -46.5 -7.5t-40.5 -25t-29.5 -51.5t-10.5 -82z" />
    <glyph glyph-name="atilde" unicode="&#xe3;" 
d="M306 700h20v-19t-1 -19.5t-3 -21t-6 -18t-9.5 -16t-14.5 -10t-21 -4.5q-18 0 -35.5 11t-46.5 42q-22 23 -33.5 29t-25.5 6q-21 0 -28 -20t-7 -68h-20q0 15 0.5 22.5t1.5 23t4.5 24t9.5 19t16 15t23 4.5q15 0 29.5 -8t24 -16.5t28.5 -28.5q14 -17 26.5 -25t18 -9t14.5 -1
q21 0 28 20t7 68zM322 500h19v-500h-19v80q-34 -88 -126 -88q-29 0 -53.5 9t-46 28t-34 54.5t-12.5 84.5v165q0 49 12.5 84.5t34 54.5t46 28t53.5 9q28 0 51 -8.5t43 -28t32 -48.5v76zM69 325v-149q0 -91 35.5 -128.5t91.5 -37.5q126 0 126 166v149q0 166 -126 166
q-25 0 -46.5 -7.5t-40.5 -25t-29.5 -51.5t-10.5 -82z" />
    <glyph glyph-name="adieresis" unicode="&#xe4;" 
d="M141 672v28h27v-28h-27zM233 672v28h27v-28h-27zM322 500h19v-500h-19v80q-34 -88 -126 -88q-29 0 -53.5 9t-46 28t-34 54.5t-12.5 84.5v165q0 49 12.5 84.5t34 54.5t46 28t53.5 9q42 0 75.5 -21t50.5 -64v76zM69 325v-149q0 -91 35.5 -128.5t91.5 -37.5q126 0 126 166
v149q0 166 -126 166q-25 0 -46.5 -7.5t-40.5 -25t-29.5 -51.5t-10.5 -82z" />
    <glyph glyph-name="aring" unicode="&#xe5;" 
d="M200 700q36 0 62.5 -26.5t26.5 -61.5q0 -38 -26 -64t-63 -26t-62.5 26t-25.5 64q0 36 25.5 62t62.5 26zM200 680q-19 0 -35 -9.5t-24.5 -25t-8.5 -33.5q0 -30 19.5 -50t48.5 -20t49 20.5t20 49.5q0 27 -20.5 47.5t-48.5 20.5zM322 500h19v-500h-19v80q-34 -88 -126 -88
q-29 0 -53.5 9t-46 28t-34 54.5t-12.5 84.5v165q0 49 12.5 84.5t34 54.5t46 28t53.5 9q28 0 51 -8.5t43 -28t32 -48.5v76zM69 325v-149q0 -91 35.5 -128.5t91.5 -37.5q126 0 126 166v149q0 166 -126 166q-25 0 -46.5 -7.5t-40.5 -25t-29.5 -51.5t-10.5 -82z" />
    <glyph glyph-name="ae" unicode="&#xe6;" horiz-adv-x="662" 
d="M50 168v165q0 49 12.5 84.5t34 54.5t46 28t53.5 9q28 0 51 -8.5t43 -28t32 -48.5v76h19v-68q36 77 126 77q29 0 53.5 -9t46 -28t33.5 -54.5t12 -84.5v-98h-271v-59q0 -166 126 -166q53 0 88 34t39 116h18q-2 -89 -43 -128.5t-102 -39.5q-90 0 -126 77v-69h-19v80
q-34 -88 -126 -88q-29 0 -53.5 9t-46 28t-34 54.5t-12.5 84.5zM594 253v72q0 48 -11 82t-30 51.5t-40 25t-46 7.5q-126 0 -126 -166v-72h253zM322 176v149q0 166 -126 166q-25 0 -46.5 -7.5t-40.5 -25t-29.5 -51.5t-10.5 -82v-149q0 -91 35.5 -128.5t91.5 -37.5
q126 0 126 166z" />
    <glyph glyph-name="ccedilla" unicode="&#xe7;" horiz-adv-x="389" 
d="M50 168v165q0 93 41.5 134.5t103.5 41.5q28 0 52 -8t45 -26t34 -50.5t15 -77.5v-14h-19q-1 45 -12 77.5t-30 49.5t-39.5 24t-45.5 7q-126 0 -126 -166v-149q0 -166 126 -166q124 0 127 158h19v-11q-4 -123 -89 -155v-71q0 -50 -19 -73t-63 -23h-31v20h31q23 0 36.5 8
t19.5 24.5t6 43.5v65q-16 -4 -37 -4q-28 0 -53 9t-46 28.5t-33.5 55t-12.5 83.5z" />
    <glyph glyph-name="egrave" unicode="&#xe8;" horiz-adv-x="388" 
d="M143 700h42l60 -110h-22zM50 168v165q0 93 41.5 134.5t103.5 41.5q28 0 52.5 -9t46 -28t34 -54.5t12.5 -84.5v-98h-271v-59q0 -166 126 -166q52 0 87.5 34t38.5 116h19q-2 -89 -43.5 -128.5t-101.5 -39.5q-29 0 -53.5 9t-45.5 28.5t-33.5 55t-12.5 83.5zM321 253v72
q0 48 -10.5 82t-29.5 51.5t-40 25t-46 7.5q-126 0 -126 -166v-72h252z" />
    <glyph glyph-name="eacute" unicode="&#xe9;" horiz-adv-x="388" 
d="M203 700h42l-80 -110h-22zM50 168v165q0 93 41.5 134.5t103.5 41.5q28 0 52.5 -9t46 -28t34 -54.5t12.5 -84.5v-98h-271v-59q0 -166 126 -166q52 0 87.5 34t38.5 116h19q-2 -89 -43.5 -128.5t-101.5 -39.5q-62 0 -103.5 41.5t-41.5 134.5zM321 253v72q0 48 -10.5 82
t-29.5 51.5t-40 25t-46 7.5q-126 0 -126 -166v-72h252z" />
    <glyph glyph-name="ecircumflex" unicode="&#xea;" horiz-adv-x="388" 
d="M180 700h28l114 -125h-28l-100 109l-100 -109h-28zM50 168v165q0 93 41.5 134.5t103.5 41.5q28 0 52.5 -9t46 -28t34 -54.5t12.5 -84.5v-98h-271v-59q0 -166 126 -166q52 0 87.5 34t38.5 116h19q-2 -89 -43.5 -128.5t-101.5 -39.5q-29 0 -53.5 9t-45.5 28.5t-33.5 55
t-12.5 83.5zM321 253v72q0 48 -10.5 82t-29.5 51.5t-40 25t-46 7.5q-126 0 -126 -166v-72h252z" />
    <glyph glyph-name="edieresis" unicode="&#xeb;" horiz-adv-x="388" 
d="M135 672v28h27v-28h-27zM227 672v28h27v-28h-27zM50 168v165q0 93 41.5 134.5t103.5 41.5q28 0 52.5 -9t46 -28t34 -54.5t12.5 -84.5v-98h-271v-59q0 -166 126 -166q52 0 87.5 34t38.5 116h19q-2 -89 -43.5 -128.5t-101.5 -39.5q-29 0 -53.5 9t-45.5 28.5t-33.5 55
t-12.5 83.5zM321 253v72q0 48 -10.5 82t-29.5 51.5t-40 25t-46 7.5q-126 0 -126 -166v-72h252z" />
    <glyph glyph-name="igrave" unicode="&#xec;" horiz-adv-x="219" 
d="M59 700h42l60 -110h-22zM100 0v500h19v-500h-19z" />
    <glyph glyph-name="iacute" unicode="&#xed;" horiz-adv-x="219" 
d="M119 700h42l-80 -110h-22zM100 0v500h19v-500h-19z" />
    <glyph glyph-name="icircumflex" unicode="&#xee;" horiz-adv-x="219" 
d="M96 700h28l114 -125h-28l-100 109l-100 -109h-28zM100 0v500h19v-500h-19z" />
    <glyph glyph-name="idieresis" unicode="&#xef;" horiz-adv-x="219" 
d="M51 672v28h27v-28h-27zM143 672v28h26v-28h-26zM100 0v500h18v-500h-18z" />
    <glyph glyph-name="eth" unicode="&#xf0;" horiz-adv-x="454" 
d="M396 684l-77 -45q21 -41 22 -101v-370q-3 -90 -44 -133t-101 -43q-29 0 -53.5 9t-46 28t-34 54.5t-12.5 84.5v165q0 49 12.5 84.5t34 54.5t46 28t53.5 9q40 0 73.5 -21.5t52.5 -62.5v100q0 166 -126 166q-89 0 -116 -84h-21l3 8q12 34 34 55.5t46.5 30t53.5 8.5
q76 0 114 -55l77 46zM322 176v149q0 86 -36 126t-90 40q-25 0 -46.5 -7.5t-40.5 -25t-29.5 -51.5t-10.5 -82v-149q0 -91 35.5 -128.5t91.5 -37.5q126 0 126 166z" />
    <glyph glyph-name="ntilde" unicode="&#xf1;" horiz-adv-x="406" 
d="M309 700h20v-19t-1 -19.5t-3 -21t-6 -18t-9.5 -16t-14.5 -10t-21 -4.5q-18 0 -35.5 11t-46.5 42q-21 23 -32.5 29t-26.5 6q-21 0 -28 -20t-7 -68h-20q0 15 0.5 22.5t1.5 23t4.5 24t9.5 19t16 15t23 4.5q15 0 29.5 -8t24 -16.5t28.5 -28.5q14 -17 26.5 -25t18 -9t14.5 -1
q21 0 28 20t7 68zM79 500v-79q17 45 50 66.5t76 21.5q29 0 53.5 -9t46 -28t34 -54.5t12.5 -84.5v-333h-19v325q0 48 -10.5 82t-29.5 51.5t-40.5 25t-46.5 7.5q-126 0 -126 -166v-325h-19v500h19z" />
    <glyph glyph-name="ograve" unicode="&#xf2;" horiz-adv-x="391" 
d="M145 700h42l60 -110h-22zM50 168v165q0 93 41.5 134.5t103.5 41.5q23 0 43 -5t39.5 -18t33 -32.5t22 -50.5t8.5 -70v-165q0 -49 -12.5 -84.5t-34 -54.5t-46 -28t-53.5 -9q-62 0 -103.5 41.5t-41.5 134.5zM322 176v149q0 48 -10.5 82t-29.5 51.5t-40.5 25t-46.5 7.5
q-126 0 -126 -166v-149q0 -166 126 -166q56 0 91.5 37.5t35.5 128.5z" />
    <glyph glyph-name="oacute" unicode="&#xf3;" horiz-adv-x="391" 
d="M205 700h42l-80 -110h-22zM50 168v165q0 93 41.5 134.5t103.5 41.5q23 0 43 -5t39.5 -18t33 -32.5t22 -50.5t8.5 -70v-165q0 -49 -12.5 -84.5t-34 -54.5t-46 -28t-53.5 -9t-53.5 9t-45.5 28.5t-33.5 55t-12.5 83.5zM322 176v149q0 48 -10.5 82t-29.5 51.5t-40.5 25
t-46.5 7.5q-126 0 -126 -166v-149q0 -166 126 -166q56 0 91.5 37.5t35.5 128.5z" />
    <glyph glyph-name="ocircumflex" unicode="&#xf4;" horiz-adv-x="391" 
d="M182 700h28l114 -125h-28l-100 109l-100 -109h-28zM50 168v165q0 93 41.5 134.5t103.5 41.5q29 0 53.5 -9t46 -28t34 -54.5t12.5 -84.5v-165q0 -49 -12.5 -84.5t-34 -54.5t-46 -28t-53.5 -9q-62 0 -103.5 41.5t-41.5 134.5zM322 176v149q0 48 -10.5 82t-29.5 51.5
t-40.5 25t-46.5 7.5q-126 0 -126 -166v-149q0 -166 126 -166q56 0 91.5 37.5t35.5 128.5z" />
    <glyph glyph-name="otilde" unicode="&#xf5;" horiz-adv-x="391" 
d="M302 700h20v-19t-1 -19.5t-3 -21t-6 -18t-9.5 -16t-14.5 -10t-21 -4.5q-18 0 -35.5 11t-46.5 42q-22 23 -33.5 29t-25.5 6q-21 0 -28 -20t-7 -68h-20q0 15 0.5 22.5t1.5 23t4.5 24t9.5 19t16 15t23 4.5q15 0 29.5 -8t24 -16.5t28.5 -28.5q14 -17 26.5 -25t18 -9t14.5 -1
q21 0 28 20t7 68zM50 168v165q0 93 41.5 134.5t103.5 41.5q23 0 43 -5t39.5 -18t33 -32.5t22 -50.5t8.5 -70v-165q0 -49 -12.5 -84.5t-34 -54.5t-46 -28t-53.5 -9t-53.5 9t-45.5 28.5t-33.5 55t-12.5 83.5zM322 176v149q0 48 -10.5 82t-29.5 51.5t-40.5 25t-46.5 7.5
q-126 0 -126 -166v-149q0 -166 126 -166q56 0 91.5 37.5t35.5 128.5z" />
    <glyph glyph-name="odieresis" unicode="&#xf6;" horiz-adv-x="391" 
d="M137 672v28h27v-28h-27zM229 672v28h27v-28h-27zM50 168v165q0 93 41.5 134.5t103.5 41.5q23 0 43 -5t39.5 -18t33 -32.5t22 -50.5t8.5 -70v-165q0 -49 -12.5 -84.5t-34 -54.5t-46 -28t-53.5 -9t-53.5 9t-45.5 28.5t-33.5 55t-12.5 83.5zM322 176v149q0 48 -10.5 82
t-29.5 51.5t-40.5 25t-46.5 7.5q-126 0 -126 -166v-149q0 -166 126 -166q56 0 91.5 37.5t35.5 128.5z" />
    <glyph glyph-name="divide" unicode="&#xf7;" horiz-adv-x="514" 
d="M245 410v28h27v-28h-27zM50 267h414v-20h-414v20zM245 73v28h27v-28h-27z" />
    <glyph glyph-name="oslash" unicode="&#xf8;" horiz-adv-x="391" 
d="M343 550l-39 -88q37 -45 37 -129v-165q0 -49 -12.5 -84.5t-34 -54.5t-46 -28t-53.5 -9q-54 0 -90 29l-32 -71h-20l38 84q-41 46 -41 134v165q0 93 41.5 134.5t103.5 41.5q58 0 95 -33l33 74h20zM69 325v-149q0 -82 30 -124l183 406q-32 33 -87 33q-126 0 -126 -166z
M322 176v149q0 76 -27 117l-183 -404q31 -28 83 -28q56 0 91.5 37.5t35.5 128.5z" />
    <glyph glyph-name="ugrave" unicode="&#xf9;" horiz-adv-x="401" 
d="M150 700h42l60 -110h-22zM327 500h19v-500h-19v79q-17 -45 -50 -66.5t-76 -21.5q-29 0 -53.5 9t-46 28t-34 54.5t-12.5 84.5v333h19v-325q0 -48 10.5 -82t29.5 -51.5t40.5 -25t46.5 -7.5q126 0 126 166v325z" />
    <glyph glyph-name="uacute" unicode="&#xfa;" horiz-adv-x="401" 
d="M210 700h42l-80 -110h-22zM327 500h19v-500h-19v79q-17 -45 -50 -66.5t-76 -21.5q-29 0 -53.5 9t-46 28t-34 54.5t-12.5 84.5v333h19v-325q0 -48 10.5 -82t29.5 -51.5t40.5 -25t46.5 -7.5q126 0 126 166v325z" />
    <glyph glyph-name="ucircumflex" unicode="&#xfb;" horiz-adv-x="401" 
d="M187 700h28l114 -125h-28l-100 109l-100 -109h-28zM327 500h19v-500h-19v79q-17 -45 -50 -66.5t-76 -21.5q-29 0 -53.5 9t-46 28t-34 54.5t-12.5 84.5v333h19v-325q0 -48 10.5 -82t29.5 -51.5t40.5 -25t46.5 -7.5q126 0 126 166v325z" />
    <glyph glyph-name="udieresis" unicode="&#xfc;" horiz-adv-x="401" 
d="M142 672v28h27v-28h-27zM234 672v28h27v-28h-27zM327 500h19v-500h-19v79q-17 -45 -50 -66.5t-76 -21.5q-29 0 -53.5 9t-46 28t-34 54.5t-12.5 84.5v333h19v-325q0 -48 10.5 -82t29.5 -51.5t40.5 -25t46.5 -7.5q126 0 126 166v325z" />
    <glyph glyph-name="yacute" unicode="&#xfd;" horiz-adv-x="381" 
d="M200 700h42l-80 -110h-22zM317 500h19v-513q-4 -84 -45 -121.5t-100 -37.5q-47 0 -83.5 23.5t-52.5 76.5h21q27 -82 115 -82q126 0 126 166v76q-17 -45 -50 -66.5t-76 -21.5q-23 0 -43 5t-39.5 18t-33 32.5t-22 50.5t-8.5 70v324h19v-316q0 -48 10.5 -82t29.5 -51.5
t40.5 -25t46.5 -7.5q126 0 126 166v316z" />
    <glyph glyph-name="thorn" unicode="&#xfe;" 
d="M77 700v-280q34 88 126 88q29 0 53.5 -9t46 -28t34 -54.5t12.5 -84.5v-165q0 -49 -12.5 -84.5t-34 -54.5t-46 -28t-53.5 -9q-42 0 -75.5 21t-50.5 64v-239h-19v863h19zM330 175v149q0 91 -35.5 128.5t-91.5 37.5q-126 0 -126 -166v-149q0 -166 126 -166q25 0 46.5 7.5
t40.5 25t29.5 51.5t10.5 82z" />
    <glyph glyph-name="ydieresis" unicode="&#xff;" horiz-adv-x="381" 
d="M132 672v28h27v-28h-27zM224 672v28h27v-28h-27zM317 500h19v-513q-4 -84 -45 -121.5t-100 -37.5q-47 0 -83.5 23.5t-52.5 76.5h21q27 -82 115 -82q126 0 126 166v76q-17 -45 -50 -66.5t-76 -21.5q-23 0 -43 5t-39.5 18t-33 32.5t-22 50.5t-8.5 70v324h19v-316
q0 -48 10.5 -82t29.5 -51.5t40.5 -25t46.5 -7.5q126 0 126 166v316z" />
    <glyph glyph-name="Amacron" unicode="&#x100;" horiz-adv-x="553" 
d="M132 900h291v-20h-291v20zM266 700h21l206 -700h-19l-75 251h-245l-74 -251h-20zM393 272l-116 396l-117 -396h233z" />
    <glyph glyph-name="amacron" unicode="&#x101;" 
d="M55 700h291v-20h-291v20zM322 500h19v-500h-19v80q-34 -88 -126 -88q-29 0 -53.5 9t-46 28t-34 54.5t-12.5 84.5v165q0 49 12.5 84.5t34 54.5t46 28t53.5 9q28 0 51.5 -8.5t43 -28t31.5 -48.5v76zM69 325v-149q0 -91 35.5 -128.5t91.5 -37.5q126 0 126 166v149
q0 166 -126 166q-25 0 -46.5 -7.5t-40.5 -25t-29.5 -51.5t-10.5 -82z" />
    <glyph glyph-name="Abreve" unicode="&#x102;" horiz-adv-x="553" 
d="M370 900h22q-10 -38 -42 -63t-73 -25t-73 25t-42 63h22q10 -30 35.5 -48.5t57.5 -18.5q33 0 58 18.5t35 48.5zM266 700h21l206 -700h-19l-75 251h-245l-74 -251h-20zM393 272l-116 396l-117 -396h233z" />
    <glyph glyph-name="abreve" unicode="&#x103;" 
d="M293 700h22q-10 -38 -42 -63t-73 -25t-73 25t-42 63h22q10 -30 35.5 -48.5t57.5 -18.5q33 0 58 18.5t35 48.5zM50 168v165q0 49 12.5 84.5t34 54.5t46 28t53.5 9q28 0 51 -8.5t43 -28t32 -48.5v76h19v-500h-19v80q-34 -88 -126 -88q-29 0 -53.5 9t-46 28t-34 54.5
t-12.5 84.5zM322 176v149q0 166 -126 166q-25 0 -46.5 -7.5t-40.5 -25t-29.5 -51.5t-10.5 -82v-149q0 -91 35.5 -128.5t91.5 -37.5q126 0 126 166z" />
    <glyph glyph-name="Aogonek" unicode="&#x104;" horiz-adv-x="553" 
d="M266 700h21l206 -700q-22 -13 -36.5 -23.5t-28 -30t-13.5 -41.5q0 -50 61 -50h18v-20h-18q-81 0 -81 70q0 14 4.5 26.5t9.5 20.5t16.5 17t16.5 12.5t18 10.5t14 8l-75 251h-245l-74 -251h-20zM393 272l-116 396l-117 -396h233z" />
    <glyph glyph-name="aogonek" unicode="&#x105;" 
d="M50 168v165q0 49 12.5 84.5t34 54.5t46 28t53.5 9q28 0 51.5 -8.5t43 -28t31.5 -48.5v76h19v-500q-34 -19 -55 -41.5t-21 -53.5q0 -50 61 -50h18v-20h-18q-81 0 -81 70q0 12 2.5 23t8.5 19.5t11 14.5t14.5 13t14 10t15 8.5t11.5 6.5v80q-34 -88 -126 -88q-29 0 -53.5 9
t-46 28t-34 54.5t-12.5 84.5zM322 176v149q0 166 -126 166q-25 0 -46.5 -7.5t-40.5 -25t-29.5 -51.5t-10.5 -82v-149q0 -91 35.5 -128.5t91.5 -37.5q126 0 126 166z" />
    <glyph glyph-name="Cacute" unicode="&#x106;" horiz-adv-x="520" 
d="M269 900h42l-80 -110h-22zM80 234v233q0 67 17 115.5t47 75t64 39t74 12.5q38 0 70 -11t60.5 -35t46.5 -68t21 -105v-13h-19l-1 13q-4 57 -20 97.5t-41.5 62t-54 31t-62.5 9.5q-37 0 -67.5 -10.5t-57.5 -35.5t-42 -72.5t-15 -114.5v-213q0 -67 15 -114.5t42 -72.5
t57.5 -35.5t67.5 -10.5q34 0 62 9t53.5 30.5t41.5 61t21 95.5l1 17h19v-11q-3 -61 -20.5 -105.5t-46.5 -69t-61 -35.5t-70 -11q-40 0 -74 12.5t-64 39t-47 75t-17 115.5z" />
    <glyph glyph-name="cacute" unicode="&#x107;" horiz-adv-x="389" 
d="M204 700h42l-80 -110h-22zM50 168v165q0 93 41.5 134.5t103.5 41.5q28 0 52 -8t45 -26t34 -51t15 -78v-13h-19q-1 45 -12 77.5t-30 49.5t-39.5 24t-45.5 7q-126 0 -126 -166v-149q0 -166 126 -166q124 0 127 158h19v-11q-3 -87 -44.5 -126t-101.5 -39q-62 0 -103.5 41.5
t-41.5 134.5z" />
    <glyph glyph-name="Cdotaccent" unicode="&#x10a;" horiz-adv-x="520" 
d="M247 900h27v-28h-27v28zM80 234v233q0 67 17 115.5t47 75t64 39t74 12.5q38 0 70 -11t60.5 -35t46.5 -68t21 -105v-13h-19l-1 13q-4 57 -20 97.5t-41.5 62t-54 31t-62.5 9.5q-37 0 -67.5 -10.5t-57.5 -35.5t-42 -72.5t-15 -114.5v-213q0 -67 15 -114.5t42 -72.5
t57.5 -35.5t67.5 -10.5q34 0 62 9t53.5 30.5t41.5 61t21 95.5l1 17h19v-11q-3 -61 -20.5 -105.5t-46.5 -69t-61 -35.5t-70 -11q-40 0 -74 12.5t-64 39t-47 75t-17 115.5z" />
    <glyph glyph-name="cdotaccent" unicode="&#x10b;" horiz-adv-x="389" 
d="M182 700h27v-28h-27v28zM50 168v165q0 93 41.5 134.5t103.5 41.5q28 0 52 -8t45 -26t34 -51t15 -78v-13h-19q-1 45 -12 77.5t-30 49.5t-39.5 24t-45.5 7q-126 0 -126 -166v-149q0 -166 126 -166q124 0 127 158h19v-11q-3 -87 -44.5 -126t-101.5 -39q-62 0 -103.5 41.5
t-41.5 134.5z" />
    <glyph glyph-name="Ccaron" unicode="&#x10c;" horiz-adv-x="520" 
d="M360 900h28l-114 -125h-28l-114 125h28l100 -109zM80 234v233q0 67 17 115.5t47 75t64 39t74 12.5q38 0 70 -11t60.5 -35t46.5 -68t21 -105v-13h-19l-1 13q-4 57 -20 97.5t-41.5 62t-54 31t-62.5 9.5q-37 0 -67.5 -10.5t-57.5 -35.5t-42 -72.5t-15 -114.5v-213
q0 -67 15 -114.5t42 -72.5t57.5 -35.5t67.5 -10.5q34 0 62 9t53.5 30.5t41.5 61t21 95.5l1 17h19v-11q-3 -61 -20.5 -105.5t-46.5 -69t-61 -35.5t-70 -11q-40 0 -74 12.5t-64 39t-47 75t-17 115.5z" />
    <glyph glyph-name="ccaron" unicode="&#x10d;" horiz-adv-x="389" 
d="M295 700h28l-114 -125h-28l-114 125h28l100 -109zM50 168v165q0 93 41.5 134.5t103.5 41.5q60 0 101 -38t45 -125v-13h-19q-1 45 -12 77.5t-30 49.5t-39.5 24t-45.5 7q-126 0 -126 -166v-149q0 -166 126 -166q124 0 127 158h19v-11q-3 -87 -44.5 -126t-101.5 -39
q-29 0 -53.5 9t-45.5 28.5t-33.5 55t-12.5 83.5z" />
    <glyph glyph-name="Dcaron" unicode="&#x10e;" horiz-adv-x="529" 
d="M279 775h-28l-114 125h28l100 -109l100 109h28zM80 700h171q39 0 73.5 -12t64.5 -38.5t47.5 -75.5t17.5 -116v-216q0 -67 -17.5 -116t-47.5 -75.5t-64.5 -38.5t-73.5 -12h-171v700zM435 252v196q0 67 -15.5 114.5t-43 72.5t-58 35.5t-67.5 10.5h-151v-662h151
q37 0 67.5 10.5t58 35.5t43 72.5t15.5 114.5z" />
    <glyph glyph-name="dcaron" unicode="&#x10f;" horiz-adv-x="484" 
d="M322 424v276h19v-700h-19v80q-34 -88 -126 -88q-23 0 -43 5t-39.5 18t-33 32.5t-22 50.5t-8.5 70v165q0 39 8.5 70t22 50.5t33 32.5t39.5 18t43 5q42 0 75.5 -21t50.5 -64zM399 700h27v-28l-14 -22h-7l5 22h-11v28zM69 325v-149q0 -91 35.5 -128.5t91.5 -37.5
q126 0 126 166v149q0 166 -126 166q-25 0 -46.5 -7.5t-40.5 -25t-29.5 -51.5t-10.5 -82z" />
    <glyph glyph-name="Dcroat" unicode="&#x110;" horiz-adv-x="529" 
d="M94 700h171q39 0 73.5 -12t64.5 -38.5t47.5 -75.5t17.5 -116v-216q0 -67 -17.5 -116t-47.5 -75.5t-64.5 -38.5t-73.5 -12h-171v340h-84v20h84v340zM449 252v196q0 67 -15.5 114.5t-43 72.5t-58 35.5t-67.5 10.5h-151v-321h138v-20h-138v-321h151q37 0 67.5 10.5t58 35.5
t43 72.5t15.5 114.5z" />
    <glyph glyph-name="dcroat" unicode="&#x111;" 
d="M431 613v-18h-90v-595h-19v80q-34 -88 -126 -88q-23 0 -43 5t-39.5 18t-33 32.5t-22 50.5t-8.5 70v165q0 39 8.5 70t22 50.5t33 32.5t39.5 18t43 5q42 0 75.5 -21t50.5 -64v171h-109v18h109v87h19v-87h90zM69 325v-149q0 -91 35.5 -128.5t91.5 -37.5q126 0 126 166v149
q0 166 -126 166q-25 0 -46.5 -7.5t-40.5 -25t-29.5 -51.5t-10.5 -82z" />
    <glyph glyph-name="Emacron" unicode="&#x112;" horiz-adv-x="423" 
d="M67 900h291v-20h-291v20zM80 700h303v-19h-283v-309h273v-19h-273v-334h283v-19h-303v700z" />
    <glyph glyph-name="emacron" unicode="&#x113;" horiz-adv-x="388" 
d="M49 700h291v-20h-291v20zM50 168v165q0 93 41.5 134.5t103.5 41.5q28 0 52.5 -9t46 -28t34 -54.5t12.5 -84.5v-98h-271v-59q0 -166 126 -166q52 0 87.5 34t38.5 116h19q-2 -89 -43.5 -128.5t-101.5 -39.5q-62 0 -103.5 41.5t-41.5 134.5zM321 253v72q0 48 -10.5 82
t-29.5 51.5t-40 25t-46 7.5q-126 0 -126 -166v-72h252z" />
    <glyph glyph-name="Edotaccent" unicode="&#x116;" horiz-adv-x="423" 
d="M199 900h27v-28h-27v28zM80 700h303v-19h-283v-309h273v-19h-273v-334h283v-19h-303v700z" />
    <glyph glyph-name="edotaccent" unicode="&#x117;" horiz-adv-x="388" 
d="M181 672v28h27v-28h-27zM50 168v165q0 93 41.5 134.5t103.5 41.5q28 0 52.5 -9t46 -28t34 -54.5t12.5 -84.5v-98h-271v-59q0 -166 126 -166q52 0 87.5 34t38.5 116h19q-2 -89 -43.5 -128.5t-101.5 -39.5q-29 0 -53.5 9t-45.5 28.5t-33.5 55t-12.5 83.5zM321 253v72
q0 48 -10.5 82t-29.5 51.5t-40 25t-46 7.5q-126 0 -126 -166v-72h252z" />
    <glyph glyph-name="Eogonek" unicode="&#x118;" horiz-adv-x="423" 
d="M80 700h303v-19h-283v-309h273v-19h-273v-335h283v-18h-36q-16 -9 -26.5 -17t-22.5 -19.5t-18.5 -25.5t-6.5 -30q0 -50 61 -50h18v-20h-18q-81 0 -81 70q0 18 6.5 33t19 26t21 17t22.5 13q3 2 5 3h-247v700z" />
    <glyph glyph-name="eogonek" unicode="&#x119;" horiz-adv-x="388" 
d="M50 168v165q0 93 41.5 134.5t103.5 41.5q28 0 52.5 -9t46 -28t34 -55t12.5 -84v-98h-271v-59q0 -166 126 -166q52 0 87.5 34t38.5 116h19q-3 -123 -85 -157l-8 -3q-23 -13 -37.5 -23.5t-28 -30t-13.5 -41.5q0 -50 61 -50h18v-20h-18q-81 0 -81 70q0 23 12 42t24 27.5
t30 18.5q-6 -1 -19 -1q-62 0 -103.5 41.5t-41.5 134.5zM321 253v72q0 48 -10.5 82t-29.5 51.5t-40 25t-46 7.5q-126 0 -126 -166v-72h252z" />
    <glyph glyph-name="Ecaron" unicode="&#x11a;" horiz-adv-x="423" 
d="M312 900h28l-114 -125h-28l-114 125h28l100 -109zM80 700h303v-19h-283v-309h273v-19h-273v-334h283v-19h-303v700z" />
    <glyph glyph-name="ecaron" unicode="&#x11b;" horiz-adv-x="388" 
d="M294 700h28l-114 -125h-28l-114 125h28l100 -109zM50 168v165q0 93 41.5 134.5t103.5 41.5q28 0 52.5 -9t46 -28t34 -54.5t12.5 -84.5v-98h-271v-59q0 -166 126 -166q52 0 87.5 34t38.5 116h19q-2 -89 -43.5 -128.5t-101.5 -39.5q-29 0 -53.5 9t-45.5 28.5t-33.5 55
t-12.5 83.5zM321 253v72q0 48 -10.5 82t-29.5 51.5t-40 25t-46 7.5q-126 0 -126 -166v-72h252z" />
    <glyph glyph-name="Gbreve" unicode="&#x11e;" horiz-adv-x="562" 
d="M374 900h22q-10 -38 -42 -63t-73 -25t-73 25t-42 63h22q10 -30 35.5 -48.5t57.5 -18.5q33 0 58 18.5t35 48.5zM80 234v233q0 67 17 115.5t47 75t64 39t74 12.5q39 0 72.5 -11.5t63.5 -37t48 -72.5t19 -111v-10h-19v8q-2 61 -18.5 105t-43.5 67t-57 33t-65 10
q-37 0 -67.5 -10.5t-57.5 -35.5t-42 -72.5t-15 -114.5v-213q0 -67 15 -114.5t42 -72.5t57.5 -35.5t67.5 -10.5t67.5 10.5t58 35.5t43 72.5t15.5 114.5v94h-172v19h191v-123q0 -54 -11.5 -96.5t-31 -69.5t-46.5 -44.5t-55 -24.5t-59 -7q-40 0 -74 12.5t-64 39t-47 75
t-17 115.5z" />
    <glyph glyph-name="gbreve" unicode="&#x11f;" 
d="M293 700h22q-10 -38 -42 -63t-73 -25t-73 25t-42 63h22q10 -30 35.5 -48.5t57.5 -18.5q33 0 58 18.5t35 48.5zM50 176v157q0 39 8.5 70t22 50.5t33 32.5t39.5 18t43 5q42 0 75.5 -21t50.5 -64v76h19v-500q-1 -47 -13 -81.5t-33.5 -53.5t-46 -28t-52.5 -9
q-47 0 -83.5 23.5t-52.5 76.5h21q27 -82 115 -82q126 0 126 166v76q-34 -88 -126 -88q-23 0 -43 5t-39.5 18t-33 32.5t-22 50.5t-8.5 70zM322 184v141q0 166 -126 166q-16 0 -31 -3t-29.5 -10t-26.5 -20t-21 -30.5t-14 -43.5t-5 -59v-141q0 -91 35.5 -128.5t91.5 -37.5
q126 0 126 166z" />
    <glyph glyph-name="Gdotaccent" unicode="&#x120;" horiz-adv-x="562" 
d="M268 872v28h27v-28h-27zM80 234v233q0 67 17 115.5t47 75t64 39t74 12.5q39 0 72.5 -11.5t63.5 -37t48 -72.5t19 -111v-10h-19v8q-2 61 -18.5 105t-43.5 67t-57 33t-65 10q-37 0 -67.5 -10.5t-57.5 -35.5t-42 -72.5t-15 -114.5v-213q0 -67 15 -114.5t42 -72.5t57.5 -35.5
t67.5 -10.5t67.5 10.5t58 35.5t43 72.5t15.5 114.5v94h-172v19h191v-123q0 -54 -11.5 -96.5t-31 -69.5t-46.5 -44.5t-55 -24.5t-59 -7q-40 0 -74 12.5t-64 39t-47 75t-17 115.5z" />
    <glyph glyph-name="gdotaccent" unicode="&#x121;" 
d="M187 700h27v-28h-27v28zM50 176v157q0 39 8.5 70t22 50.5t33 32.5t39.5 18t43 5q42 0 75.5 -21t50.5 -64v76h19v-500q-1 -47 -13 -82t-33.5 -53.5t-46 -27.5t-52.5 -9q-47 0 -83.5 23.5t-52.5 76.5h21q27 -82 115 -82q126 0 126 166v76q-34 -88 -126 -88q-23 0 -43 5
t-39.5 18t-33 32.5t-22 50.5t-8.5 70zM322 184v141q0 166 -126 166q-25 0 -46.5 -7.5t-40.5 -25t-29.5 -51.5t-10.5 -82v-141q0 -91 35.5 -128.5t91.5 -37.5q126 0 126 166z" />
    <glyph glyph-name="Gcommaaccent" unicode="&#x122;" horiz-adv-x="562" 
d="M80 234v233q0 67 17 115.5t47 75t64 39t74 12.5q39 0 72.5 -11.5t63.5 -37t48 -72.5t19 -111v-10h-19v8q-2 61 -18.5 105t-43.5 67t-57 33t-65 10q-37 0 -67.5 -10.5t-57.5 -35.5t-42 -72.5t-15 -114.5v-213q0 -67 15 -114.5t42 -72.5t57.5 -35.5t67.5 -10.5t67.5 10.5
t58 35.5t43 72.5t15.5 114.5v94h-172v19h191v-123q0 -54 -11.5 -96.5t-31 -69.5t-46.5 -44.5t-55 -24.5t-59 -7q-40 0 -74 12.5t-64 39t-47 75t-17 115.5zM268 -112h27v-28l-14 -22h-7l5 22h-11v28z" />
    <glyph glyph-name="gcommaaccent" unicode="&#x123;" 
d="M196 716h7l-5 -22h11v-28h-27v28zM50 176v157q0 28 4.5 52t12 42t18.5 32t23.5 23.5t27.5 15.5t29.5 8.5t30.5 2.5q28 0 51.5 -8.5t43 -28t31.5 -48.5v76h19v-500q-1 -47 -13 -81.5t-33.5 -53.5t-46 -28t-52.5 -9q-47 0 -83.5 23.5t-52.5 76.5h21q27 -82 115 -82
q126 0 126 166v76q-34 -88 -126 -88q-23 0 -43 5t-39.5 18t-33 32.5t-22 50.5t-8.5 70zM322 184v141q0 166 -126 166q-25 0 -46.5 -7.5t-40.5 -25t-29.5 -51.5t-10.5 -82v-141q0 -91 35.5 -128.5t91.5 -37.5q126 0 126 166z" />
    <glyph glyph-name="Hbar" unicode="&#x126;" horiz-adv-x="660" 
d="M620 532v-19h-110v-513h-19v353h-321v-353h-20v513h-110v19h110v168h20v-168h321v168h19v-168h110zM491 372v141h-321v-141h321z" />
    <glyph glyph-name="hbar" unicode="&#x127;" horiz-adv-x="422" 
d="M95 598v-177q17 44 50.5 66t75.5 22q29 0 53.5 -9t46 -28t34 -54.5t12.5 -84.5v-333h-19v325q0 48 -10.5 82t-30 51.5t-40.5 25t-46 7.5q-126 0 -126 -166v-325h-19v597h-116v18h116v85h19v-84h116v-18h-116z" />
    <glyph glyph-name="Imacron" unicode="&#x12a;" horiz-adv-x="180" 
d="M-56 900h292v-20h-292v20zM80 0v700h20v-700h-20z" />
    <glyph glyph-name="imacron" unicode="&#x12b;" horiz-adv-x="219" 
d="M-36 700h292v-20h-292v20zM100 0v500h19v-500h-19z" />
    <glyph glyph-name="Iogonek" unicode="&#x12e;" horiz-adv-x="180" 
d="M80 700h20v-700q-23 -13 -37.5 -23.5t-28.5 -30t-14 -41.5q0 -50 62 -50h18v-20h-18q-81 0 -81 70q0 12 2.5 23t8.5 19.5t11 14.5t15 13t14.5 10t15.5 8.5l13 6.5h-1v700z" />
    <glyph glyph-name="iogonek" unicode="&#x12f;" horiz-adv-x="219" 
d="M97 672v28h27v-28h-27zM119 500v-500q-23 -13 -37.5 -23.5t-28 -30t-13.5 -41.5q0 -50 61 -50h18v-20h-18q-81 0 -81 70q0 14 4.5 26.5t10 20.5t16.5 17t17 12.5t18.5 10.5t14.5 8h-1v500h19z" />
    <glyph glyph-name="Idotaccent" unicode="&#x130;" horiz-adv-x="180" 
d="M77 872v28h27v-28h-27zM80 0v700h20v-700h-20z" />
    <glyph glyph-name="dotlessi" unicode="&#x131;" horiz-adv-x="219" 
d="M100 0v500h19v-500h-19z" />
    <glyph glyph-name="IJ" unicode="&#x132;" horiz-adv-x="513" 
d="M80 700h20v-700h-20v700zM413 700h20v-466q0 -62 -15.5 -109.5t-42.5 -75t-57.5 -41.5t-64.5 -16h-13v19h9q32 1 59.5 13.5t52 38.5t38.5 72.5t14 108.5v456z" />
    <glyph glyph-name="ij" unicode="&#x133;" horiz-adv-x="419" 
d="M63 625h27v-28h-27v28zM334 624h25v-26h-25v26zM67 500h19v-500h-19v500zM337 500h19v-497q0 -55 -7.5 -90t-25 -53t-39 -25t-55.5 -8h-19v18h11q34 0 53 5t35 21.5t22 50t6 89.5v489z" />
    <glyph glyph-name="Kcommaaccent" unicode="&#x136;" horiz-adv-x="511" 
d="M116 361l335 -361h-28l-323 349v-349h-20v700h20v-327l298 327h28zM243 -140v28h27v-28l-14 -22h-7l5 22h-11z" />
    <glyph glyph-name="kcommaaccent" unicode="&#x137;" horiz-adv-x="364" 
d="M91 255l228 -255h-24l-218 245v-245h-19v700h19v-435l207 235h24zM169 -140v28h27v-28l-14 -22h-7l5 22h-11z" />
    <glyph glyph-name="Lacute" unicode="&#x139;" horiz-adv-x="437" 
d="M228 900h42l-80 -110h-22zM80 700h20v-681h277v-19h-297v700z" />
    <glyph glyph-name="lacute" unicode="&#x13a;" horiz-adv-x="137" 
d="M78 860h42l-80 -110h-22zM63 0v700h19v-700h-19z" />
    <glyph glyph-name="Lcommaaccent" unicode="&#x13b;" horiz-adv-x="437" 
d="M100 19h277v-19h-297v700h20v-681zM206 -140v28h27v-28l-14 -22h-7l5 22h-11z" />
    <glyph glyph-name="lcommaaccent" unicode="&#x13c;" horiz-adv-x="137" 
d="M82 700v-700h-19v700h19zM56 -112h27v-28l-14 -22h-7l5 22h-11v28z" />
    <glyph glyph-name="Lcaron" unicode="&#x13d;" horiz-adv-x="437" 
d="M100 19h277v-19h-297v700h20v-681zM286 650l5 22h-11v28h27v-28l-14 -22h-7z" />
    <glyph glyph-name="lcaron" unicode="&#x13e;" horiz-adv-x="171" 
d="M63 0v700h19v-700h-19zM145 700h26v-28l-13 -22h-7l4 22h-10v28z" />
    <glyph glyph-name="Ldot" unicode="&#x13f;" horiz-adv-x="437" 
d="M100 19h277v-19h-297v700h20v-681zM322 325v-29h-27v29h27z" />
    <glyph glyph-name="ldot" unicode="&#x140;" horiz-adv-x="230" 
d="M63 0v700h19v-700h-19zM178 297v28h26v-28h-26z" />
    <glyph glyph-name="Lslash" unicode="&#x141;" horiz-adv-x="503" 
d="M148 19l295 -1v-18h-315v382l-112 -80v24l112 79v295h20v-281l114 81v-24l-114 -80v-377z" />
    <glyph glyph-name="lslash" unicode="&#x142;" horiz-adv-x="278" 
d="M262 500v-24l-114 -80v-396h-20v382l-112 -80v24l112 79v295h20v-281z" />
    <glyph glyph-name="Nacute" unicode="&#x143;" horiz-adv-x="515" 
d="M267 900h42l-80 -110h-22zM418 700h20v-700h-20l-321 660v-660h-20v700h20l321 -660v660z" />
    <glyph glyph-name="nacute" unicode="&#x144;" horiz-adv-x="406" 
d="M212 700h42l-80 -110h-22zM79 500v-79q17 45 50 66.5t76 21.5q29 0 53.5 -9t46 -28t34 -54.5t12.5 -84.5v-333h-19v325q0 48 -10.5 82t-29.5 51.5t-40.5 25t-46.5 7.5q-126 0 -126 -166v-325h-19v500h19z" />
    <glyph glyph-name="Ncommaaccent" unicode="&#x145;" horiz-adv-x="515" 
d="M418 700h20v-700h-20l-321 660v-660h-20v700h20l321 -660v660zM245 -140v28h27v-28l-14 -22h-7l5 22h-11z" />
    <glyph glyph-name="ncommaaccent" unicode="&#x146;" horiz-adv-x="406" 
d="M79 500v-79q17 45 50 66.5t76 21.5q29 0 53.5 -9t46 -28t34 -54.5t12.5 -84.5v-333h-19v325q0 48 -10.5 82t-29.5 51.5t-40.5 25t-46.5 7.5q-126 0 -126 -166v-325h-19v500h19zM190 -140v28h27v-28l-14 -22h-7l5 22h-11z" />
    <glyph glyph-name="Ncaron" unicode="&#x147;" horiz-adv-x="515" 
d="M358 900h28l-114 -125h-28l-114 125h28l100 -109zM418 700h20v-700h-20l-321 660v-660h-20v700h20l321 -660v660z" />
    <glyph glyph-name="ncaron" unicode="&#x148;" horiz-adv-x="406" 
d="M303 700h28l-114 -125h-28l-114 125h28l100 -109zM79 500v-79q17 45 50 66.5t76 21.5q29 0 53.5 -9t46 -28t34 -54.5t12.5 -84.5v-333h-19v325q0 48 -10.5 82t-29.5 51.5t-40.5 25t-46.5 7.5q-126 0 -126 -166v-325h-19v500h19z" />
    <glyph glyph-name="Eng" unicode="&#x14a;" horiz-adv-x="600" 
d="M469 700h20v-700q-1 -56 -8.5 -90t-26 -52t-40.5 -24t-58 -7h-13v18h12q33 0 51 4.5t34 20.5t22.5 47t6.5 83l-321 660v-660h-20v700h20l321 -660v660z" />
    <glyph glyph-name="eng" unicode="&#x14b;" horiz-adv-x="406" 
d="M79 500v-79q17 45 50 66.5t76 21.5q29 0 53.5 -9t46 -28t34 -54.5t12.5 -84.5v-330q0 -56 -8 -91.5t-26.5 -53.5t-40.5 -24t-59 -7h-12v18h7q29 0 45.5 2.5t33 12t24.5 27.5t12.5 48t4.5 76v314q0 48 -10.5 82t-29.5 51.5t-40.5 25t-46.5 7.5q-126 0 -126 -166v-325h-19
v500h19z" />
    <glyph glyph-name="Omacron" unicode="&#x14c;" horiz-adv-x="545" 
d="M128 900h291v-20h-291v20zM70 234v233q0 67 17 115.5t47 75t64 39t74 12.5q39 0 73.5 -12t64.5 -38.5t47.5 -75.5t17.5 -116v-233q0 -67 -17.5 -116t-47.5 -75.5t-64.5 -38.5t-73.5 -12q-40 0 -74 12.5t-64 39t-47 75t-17 115.5zM456 244v213q0 67 -15.5 114.5t-43 72.5
t-58 35.5t-67.5 10.5t-67.5 -10.5t-57.5 -35.5t-42 -72.5t-15 -114.5v-213q0 -67 15 -114.5t42 -72.5t57.5 -35.5t67.5 -10.5t67.5 10.5t58 35.5t43 72.5t15.5 114.5z" />
    <glyph glyph-name="omacron" unicode="&#x14d;" horiz-adv-x="391" 
d="M51 700h291v-20h-291v20zM50 168v165q0 93 41.5 134.5t103.5 41.5q23 0 43 -5t39.5 -18t33 -32.5t22 -50.5t8.5 -70v-165q0 -49 -12.5 -84.5t-34 -54.5t-46 -28t-53.5 -9q-62 0 -103.5 41.5t-41.5 134.5zM322 176v149q0 48 -10.5 82t-29.5 51.5t-40.5 25t-46.5 7.5
q-126 0 -126 -166v-149q0 -166 126 -166q56 0 91.5 37.5t35.5 128.5z" />
    <glyph glyph-name="Ohungarumlaut" unicode="&#x150;" horiz-adv-x="545" 
d="M235 900h42l-80 -110h-22zM330 900h42l-80 -110h-22zM70 234v233q0 67 17 115.5t47 75t64 39t74 12.5q39 0 73.5 -12t64.5 -38.5t47.5 -75.5t17.5 -116v-233q0 -67 -17.5 -116t-47.5 -75.5t-64.5 -38.5t-73.5 -12q-40 0 -74 12.5t-64 39t-47 75t-17 115.5zM456 244v213
q0 67 -15.5 114.5t-43 72.5t-58 35.5t-67.5 10.5t-67.5 -10.5t-57.5 -35.5t-42 -72.5t-15 -114.5v-213q0 -67 15 -114.5t42 -72.5t57.5 -35.5t67.5 -10.5t67.5 10.5t58 35.5t43 72.5t15.5 114.5z" />
    <glyph glyph-name="ohungarumlaut" unicode="&#x151;" horiz-adv-x="391" 
d="M158 700h42l-80 -110h-22zM253 700h42l-80 -110h-22zM50 168v165q0 93 41.5 134.5t103.5 41.5q23 0 43 -5t39.5 -18t33 -32.5t22 -50.5t8.5 -70v-165q0 -49 -12.5 -84.5t-34 -54.5t-46 -28t-53.5 -9t-53.5 9t-45.5 28.5t-33.5 55t-12.5 83.5zM322 176v149q0 48 -10.5 82
t-29.5 51.5t-40.5 25t-46.5 7.5q-126 0 -126 -166v-149q0 -166 126 -166q26 0 47.5 7.5t40 25.5t29 51.5t10.5 81.5z" />
    <glyph glyph-name="OE" unicode="&#x152;" horiz-adv-x="839" 
d="M50 234v233q0 67 17 115.5t47 75t64 39t74 12.5q60 0 109.5 -28.5t73.5 -92.5v112h303v-19h-283v-309h273v-19h-273v-334h283v-19h-303v113q-16 -43 -47 -71t-64 -39t-72 -11q-40 0 -74 12.5t-64 39t-47 75t-17 115.5zM435 244v213q0 67 -15.5 114.5t-42.5 72.5
t-57.5 35.5t-67.5 10.5t-67.5 -10.5t-57.5 -35.5t-42.5 -72.5t-15.5 -114.5v-213q0 -67 15.5 -114.5t42.5 -72.5t57.5 -36t67.5 -11t67.5 11t57.5 36t42.5 72.5t15.5 114.5z" />
    <glyph glyph-name="oe" unicode="&#x153;" horiz-adv-x="763" 
d="M100 168v165q0 93 42 134.5t103 41.5q47 0 84 -24t53 -78q15 54 52 78t83 24q29 0 53.5 -9t46 -28t33.5 -54.5t12 -84.5v-98h-271v-59q0 -166 126 -166q53 0 88 34t39 116h18q-2 -89 -43 -128.5t-102 -39.5q-46 0 -83 24t-52 78q-16 -54 -53 -78t-84 -24q-61 0 -103 41.5
t-42 134.5zM644 253v72q0 48 -11 82t-30 51.5t-40 25t-46 7.5q-126 0 -126 -166v-72h253zM373 176v149q0 28 -4 51.5t-10.5 40t-16.5 30t-20.5 21.5t-23.5 13.5t-26 7.5t-27 2q-126 0 -126 -166v-149q0 -166 126 -166q56 0 92 37.5t36 128.5z" />
    <glyph glyph-name="Racute" unicode="&#x154;" horiz-adv-x="505" 
d="M262 900h42l-80 -110h-22zM80 700h161q38 0 72 -9t63.5 -28t47 -54t17.5 -81v-21q0 -38 -12.5 -69t-35 -50.5t-49 -31.5t-58.5 -17l159 -339h-21l-159 335h-165v-335h-20v700zM422 512v11q0 46 -15.5 78.5t-43 49t-57 24t-65.5 7.5h-141v-328h141q35 0 65.5 7.5
t57.5 24.5t42.5 49t15.5 77z" />
    <glyph glyph-name="racute" unicode="&#x155;" horiz-adv-x="255" 
d="M137 700h42l-80 -110h-22zM79 500v-92q12 33 32 56t45 34t54 11v-17q-36 0 -65 -19t-47.5 -60.5t-18.5 -99.5v-313h-19v500h19z" />
    <glyph glyph-name="Rcommaaccent" unicode="&#x156;" horiz-adv-x="505" 
d="M80 700h161q38 0 72 -9t63.5 -28t47 -54t17.5 -81v-21q0 -38 -12.5 -69t-35 -50.5t-49 -31.5t-58.5 -17l159 -339h-21l-159 335h-165v-335h-20v700zM422 512v11q0 46 -15.5 78.5t-43 49t-57 24t-65.5 7.5h-141v-328h141q35 0 65.5 7.5t57.5 24.5t42.5 49t15.5 77z
M240 -112h27v-28l-14 -22h-7l5 22h-11v28z" />
    <glyph glyph-name="rcommaaccent" unicode="&#x157;" horiz-adv-x="255" 
d="M79 500v-92q12 33 32 56t45 34t54 11v-17q-56 0 -93.5 -46.5t-37.5 -132.5v-313h-19v500h19zM115 -140v28h27v-28l-14 -22h-7l5 22h-11z" />
    <glyph glyph-name="Rcaron" unicode="&#x158;" horiz-adv-x="505" 
d="M353 900h28l-114 -125h-28l-114 125h28l100 -109zM80 700h161q38 0 72 -9t63.5 -28t47 -54t17.5 -81v-21q0 -38 -12.5 -69t-35 -50.5t-49 -31.5t-58.5 -17l159 -339h-21l-159 335h-165v-335h-20v700zM422 512v11q0 46 -15.5 78.5t-43 49t-57 24t-65.5 7.5h-141v-328h141
q35 0 65.5 7.5t57.5 24.5t42.5 49t15.5 77z" />
    <glyph glyph-name="rcaron" unicode="&#x159;" horiz-adv-x="255" 
d="M228 700h28l-114 -125h-28l-114 125h28l100 -109zM79 500v-92q12 33 32 56t45 34t54 11v-17q-36 0 -65 -19t-47.5 -60.5t-18.5 -99.5v-313h-19v500h19z" />
    <glyph glyph-name="Sacute" unicode="&#x15a;" horiz-adv-x="524" 
d="M271 900h42l-80 -110h-22zM60 204h20q0 -53 17 -92t45 -60.5t58 -31t62 -9.5q83 0 133 40t50 127q0 32 -9.5 59t-24 45.5t-38 34t-45.5 25t-52 19.5q-6 2 -24.5 8t-28.5 9.5t-28 11t-28.5 14t-25.5 17t-24 22.5t-17.5 27t-12.5 34t-4 40q0 44 16 77t43 51.5t59 27.5t67 9
q23 0 45.5 -5t44 -15.5t39.5 -28t32 -40t21.5 -54.5t7.5 -69h-19q0 50 -15 89t-40.5 61t-54.5 32.5t-61 10.5q-21 0 -40.5 -3t-38.5 -10.5t-34.5 -19t-27 -27.5t-18 -38t-6.5 -48q0 -27 7.5 -49t21 -38t27 -27.5t33 -20t32 -13t30.5 -10t23 -6.5q100 -34 143.5 -77.5
t43.5 -124.5q0 -51 -15.5 -87.5t-44 -57.5t-64 -31t-78.5 -10q-35 0 -69 11.5t-64.5 35t-49.5 66.5t-19 99z" />
    <glyph glyph-name="sacute" unicode="&#x15b;" horiz-adv-x="384" 
d="M201 700h42l-80 -110h-22zM64 144v-7q2 -68 39 -97.5t89 -29.5q128 0 128 120q0 50 -29 80t-85 49q-2 1 -20.5 7t-24.5 8t-23 9.5t-24 13t-19 15.5t-17.5 21t-10 26t-4.5 32q0 61 38.5 89.5t96.5 28.5q52 0 92 -35.5t44 -106.5v-10h-19v12q-3 64 -36 93t-81 29
q-116 0 -116 -100q0 -20 7.5 -36.5t16 -26.5t26 -19.5t26 -13t28 -10t21.5 -6.5q35 -12 60 -26.5t41 -33t23.5 -40.5t7.5 -49q0 -71 -41.5 -104.5t-105.5 -33.5q-25 0 -49 8t-46 24t-36 45t-16 67v8h19z" />
    <glyph glyph-name="Scedilla" unicode="&#x15e;" horiz-adv-x="524" 
d="M60 204h20q0 -53 17 -92t45 -60.5t58 -31.5t62 -10q83 0 133 40.5t50 127.5q0 40 -13 71t-38.5 52t-52.5 34t-65 26q-4 2 -27.5 9.5t-33 11t-31 13t-32 17.5t-26.5 22t-23.5 29t-13.5 36t-6 45q0 44 16 77t43 51.5t59 27.5t67 9q23 0 45.5 -5t44 -15.5t39.5 -28t32 -40
t21.5 -54.5t7.5 -69h-19q0 50 -15 89t-40.5 61t-54.5 32.5t-61 10.5q-21 0 -40.5 -3t-38.5 -10.5t-34.5 -19t-27 -27.5t-18 -38t-6.5 -48q0 -31 11 -56.5t24.5 -40.5t37 -28.5t37 -18.5t37.5 -12t27 -8q100 -34 143.5 -77.5t43.5 -124.5q0 -55 -19.5 -94t-50.5 -59t-75 -28
v-66q0 -33 -8 -54t-26 -31.5t-48 -10.5h-31v20h31q34 0 48 17.5t14 58.5v63q-24 -2 -37 -2q-35 0 -69 11.5t-64.5 35t-49.5 66.5t-19 99z" />
    <glyph glyph-name="scedilla" unicode="&#x15f;" horiz-adv-x="384" 
d="M64 144v-8q1 -29 9 -51.5t20.5 -36t29.5 -22.5t33.5 -12.5t35.5 -3.5q128 0 128 120q0 50 -29 80t-85 49q-2 1 -20.5 7t-24.5 8t-23 9.5t-24 13t-19 15.5t-17.5 21t-10 26t-4.5 32q0 61 38.5 89.5t96.5 28.5q33 0 61.5 -13t50 -46t24.5 -80v-13h-19v14q-3 63 -36.5 91.5
t-80.5 28.5q-116 0 -116 -100q0 -20 7.5 -36.5t16 -26.5t26 -19.5t26 -13t28 -10t21.5 -6.5q70 -23 101 -59t31 -90q0 -103 -90 -130v-69q0 -50 -19 -73t-63 -23h-31v20h31q34 0 48 17.5t14 58.5v64q-18 -3 -37 -3q-25 0 -49 8t-46 24t-36 45t-16 67v8h19z" />
    <glyph glyph-name="Scaron" unicode="&#x160;" horiz-adv-x="524" 
d="M362 900h28l-114 -125h-28l-114 125h28l100 -109zM60 204h20q0 -53 17 -92t45 -60.5t58 -31t62 -9.5q83 0 133 40t50 127q0 40 -13 71t-38.5 52t-52.5 34t-65 26q-4 2 -27.5 9.5t-33 11t-31 13t-32 17.5t-26.5 22t-23.5 29t-13.5 36t-6 45q0 44 16 77t43 51.5t59 27.5
t67 9q23 0 45.5 -5t44 -15.5t39.5 -28t32 -40t21.5 -54.5t7.5 -69h-19q0 51 -15 89.5t-40.5 60.5t-54.5 33t-61 11q-25 0 -48.5 -5t-45 -16t-37.5 -27.5t-25 -42t-9 -56.5t11 -56.5t24.5 -40.5t37 -28.5t37 -18.5t37.5 -12t27 -8q100 -34 143.5 -77.5t43.5 -124.5
q0 -51 -15.5 -87.5t-44 -57.5t-64 -31t-78.5 -10q-35 0 -69 11.5t-64.5 35t-49.5 66.5t-19 99z" />
    <glyph glyph-name="scaron" unicode="&#x161;" horiz-adv-x="384" 
d="M292 700h28l-114 -125h-28l-114 125h28l100 -109zM64 144v-7q2 -68 39 -97.5t89 -29.5q128 0 128 120q0 50 -29 80t-85 49q-2 1 -20.5 7t-24.5 8t-23 9.5t-24 13t-19 16t-17.5 21t-10 25.5t-4.5 32q0 61 38.5 89.5t96.5 28.5q52 0 92 -35.5t44 -106.5v-10h-19v12
q-3 64 -36 93t-81 29q-116 0 -116 -100q0 -20 7.5 -36.5t16 -26.5t26 -19.5t26 -13t28 -10t21.5 -6.5q35 -12 60 -26.5t41 -33t23.5 -40.5t7.5 -49q0 -71 -41.5 -104.5t-105.5 -33.5q-25 0 -49 8t-46 24t-36 45t-16 67v8h19z" />
    <glyph glyph-name="Tcedilla" unicode="&#x162;" horiz-adv-x="472" 
d="M60 700h352v-18h-166v-751q0 -50 -19 -73t-63 -23h-31v20h31q34 0 48 17.5t15 58.5v69h-1v681h-166v19z" />
    <glyph glyph-name="tcedilla" unicode="&#x163;" horiz-adv-x="326" 
d="M135 653h19v-153h127v-17h-127v-299q0 -49 4.5 -81.5t12 -51.5t24 -28t32 -11.5t43.5 -2.5h11v-18h-12q-30 0 -50 4v-58q0 -50 -19 -73t-63 -23h-31v20h31q34 0 48 17.5t14 58.5v63q-33 13 -48.5 52.5t-15.5 123.5v307h-90v17h90v153z" />
    <glyph glyph-name="Tcaron" unicode="&#x164;" horiz-adv-x="472" 
d="M336 900h28l-114 -125h-28l-114 125h28l100 -109zM412 700v-18h-166v-682h-20v682h-166v18h352z" />
    <glyph glyph-name="tcaron" unicode="&#x165;" horiz-adv-x="326" 
d="M200 700h26v-28l-14 -22h-6l4 22h-10v28zM135 653h19v-153h127v-17h-127v-299q0 -49 4.5 -81t12 -51t23 -28.5t31 -12t42.5 -2.5h14v-18h-14q-24 0 -40.5 2.5t-32.5 9t-26 19t-18 33t-11.5 50.5t-3.5 71v307h-90v17h90v153z" />
    <glyph glyph-name="Tbar" unicode="&#x166;" horiz-adv-x="472" 
d="M60 700h352v-19h-166v-279h109v-19h-109v-383h-20v383h-101v19h101v279h-166v19z" />
    <glyph glyph-name="tbar" unicode="&#x167;" horiz-adv-x="326" 
d="M281 483h-127v-133h127v-18h-127v-148q0 -49 4.5 -81t12 -51t23 -28.5t31 -12t42.5 -2.5h14v-18h-14q-29 0 -47.5 3.5t-36.5 14t-27 30.5t-15 54t-6 83v156h-90v18h90v133h-90v17h90v153h19v-153h127v-17z" />
    <glyph glyph-name="Umacron" unicode="&#x16a;" horiz-adv-x="556" 
d="M133 900h291v-20h-291v20zM100 244v456h-20v-466q0 -66 17 -114.5t46 -75.5t63 -39.5t73 -12.5t73 12.5t63.5 39.5t46.5 75.5t17 114.5v466h-19v-456q0 -52 -10.5 -93t-27.5 -67t-40.5 -43t-48.5 -24t-54 -7q-37 0 -67.5 12t-56.5 37.5t-40.5 72.5t-14.5 112z" />
    <glyph glyph-name="umacron" unicode="&#x16b;" horiz-adv-x="401" 
d="M56 700h291v-20h-291v20zM327 500h19v-500h-19v79q-17 -45 -50 -66.5t-76 -21.5q-29 0 -53.5 9t-46 28t-34 54.5t-12.5 84.5v333h19v-325q0 -48 10.5 -82t29.5 -51.5t40.5 -25t46.5 -7.5q126 0 126 166v325z" />
    <glyph glyph-name="Uring" unicode="&#x16e;" horiz-adv-x="556" 
d="M278 900q37 0 63 -26.5t26 -61.5q0 -38 -26 -64t-63 -26t-62.5 26t-25.5 64q0 36 25.5 62t62.5 26zM278 880q-19 0 -34.5 -9.5t-24.5 -25t-9 -33.5q0 -30 19.5 -50t48.5 -20t49 20.5t20 49.5q0 27 -20.5 47.5t-48.5 20.5zM100 244v456h-20v-466q0 -66 17 -114.5t46 -75.5
t63 -39.5t73 -12.5t73 12.5t63.5 39.5t46.5 75.5t17 114.5v466h-19v-456q0 -52 -10.5 -93t-27.5 -67t-40.5 -43t-48.5 -24t-54 -7q-37 0 -67.5 12t-56.5 37.5t-40.5 72.5t-14.5 112z" />
    <glyph glyph-name="uring" unicode="&#x16f;" horiz-adv-x="401" 
d="M201 700q37 0 63 -26.5t26 -61.5q0 -38 -26 -64t-63 -26t-62.5 26t-25.5 64q0 36 25.5 62t62.5 26zM201 680q-29 0 -48.5 -20.5t-19.5 -47.5q0 -30 19.5 -50t48.5 -20t49 20.5t20 49.5q0 27 -20.5 47.5t-48.5 20.5zM327 500h19v-500h-19v79q-17 -45 -50 -66.5t-76 -21.5
q-29 0 -53.5 9t-46 28t-34 54.5t-12.5 84.5v333h19v-325q0 -48 10.5 -82t29.5 -51.5t40.5 -25t46.5 -7.5q126 0 126 166v325z" />
    <glyph glyph-name="Uhungarumlaut" unicode="&#x170;" horiz-adv-x="556" 
d="M240 900h42l-80 -110h-22zM335 900h42l-80 -110h-22zM100 244v456h-20v-466q0 -66 17 -114.5t46 -75.5t63 -39.5t73 -12.5t73 12.5t63.5 39.5t46.5 75.5t17 114.5v466h-19v-456q0 -52 -10.5 -93t-27.5 -67t-40.5 -43t-48.5 -24t-54 -7q-37 0 -67.5 12t-56.5 37.5
t-40.5 72.5t-14.5 112z" />
    <glyph glyph-name="uhungarumlaut" unicode="&#x171;" horiz-adv-x="401" 
d="M163 700h42l-80 -110h-22zM258 700h42l-80 -110h-22zM327 500h19v-500h-19v79q-17 -45 -50 -66.5t-76 -21.5q-29 0 -53.5 9t-46 28t-34 54.5t-12.5 84.5v333h19v-325q0 -48 10.5 -82t29.5 -51.5t40.5 -25t46.5 -7.5q126 0 126 166v325z" />
    <glyph glyph-name="Uogonek" unicode="&#x172;" horiz-adv-x="556" 
d="M460 700h19v-466q0 -98 -35.5 -154.5t-94.5 -76.5l-10 -3q-13 -8 -21 -13t-20.5 -15t-19.5 -19t-12 -22t-5 -26q0 -50 61 -50h18v-20h-18q-81 0 -81 70q0 24 12.5 43t24.5 27.5t31 18.5l-30 -2q-39 0 -73 12.5t-63 39.5t-46 75.5t-17 114.5v466h20v-456q0 -52 10 -93
t26.5 -67t40 -43t48.5 -24t54 -7q36 0 66.5 12t57 37.5t42 72.5t15.5 112v456z" />
    <glyph glyph-name="uogonek" unicode="&#x173;" horiz-adv-x="401" 
d="M327 500h19v-500q-17 -9 -28 -17t-24 -20t-20 -26.5t-7 -31.5q0 -50 61 -50h18v-20h-18q-81 0 -81 70q0 10 2 18.5t5.5 15.5t7.5 13.5t10 12t10.5 9.5t12 8t12 6.5t11.5 6t9 5.5v79q-17 -44 -50.5 -66t-75.5 -22q-29 0 -53.5 9t-46 28t-34 54.5t-12.5 84.5v333h19v-325
q0 -48 10.5 -82t29.5 -51.5t40.5 -25t46.5 -7.5q126 0 126 166v325z" />
    <glyph glyph-name="Wcircumflex" unicode="&#x174;" horiz-adv-x="827" 
d="M400 900h28l114 -125h-28l-100 109l-100 -109h-28zM748 700h19l-170 -700h-19l-164 663l-164 -663h-20l-170 700h20l160 -660l163 660h21l163 -660z" />
    <glyph glyph-name="wcircumflex" unicode="&#x175;" horiz-adv-x="696" 
d="M334 700h28l114 -125h-28l-100 109l-100 -109h-28zM632 500h19l-141 -500h-20l-142 468l-141 -468h-21l-141 500h20l132 -468l141 468h20l142 -468z" />
    <glyph glyph-name="Ycircumflex" unicode="&#x176;" horiz-adv-x="507" 
d="M240 900h28l114 -125h-28l-100 109l-100 -109h-28zM424 700h23l-186 -401v-299h-20v299l-181 401h22l169 -379z" />
    <glyph glyph-name="ycircumflex" unicode="&#x177;" horiz-adv-x="381" 
d="M177 700h28l114 -125h-28l-100 109l-100 -109h-28zM317 500h19v-513q-4 -84 -45 -121.5t-100 -37.5q-47 0 -83.5 23.5t-52.5 76.5h21q27 -82 115 -82q126 0 126 166v76q-17 -45 -50 -66.5t-76 -21.5q-23 0 -43 5t-39.5 18t-33 32.5t-22 50.5t-8.5 70v324h19v-316
q0 -48 10.5 -82t29.5 -51.5t40.5 -25t46.5 -7.5q126 0 126 166v316z" />
    <glyph glyph-name="Ydieresis" unicode="&#x178;" horiz-adv-x="507" 
d="M195 872v28h27v-28h-27zM287 872v28h27v-28h-27zM424 700h23l-186 -401v-299h-20v299l-181 401h22l169 -379z" />
    <glyph glyph-name="Zacute" unicode="&#x179;" horiz-adv-x="545" 
d="M282 900h42l-80 -110h-22zM68 700h409v-20l-394 -661h402v-19h-425v20l394 661h-386v19z" />
    <glyph glyph-name="zacute" unicode="&#x17a;" horiz-adv-x="386" 
d="M202 700h42l-80 -110h-22zM56 500h284v-18l-273 -464h274v-18h-296v18l273 463h-262v19z" />
    <glyph glyph-name="Zdotaccent" unicode="&#x17b;" horiz-adv-x="545" 
d="M260 900h27v-28h-27v28zM68 700h409v-20l-394 -661h402v-19h-425v20l394 661h-386v19z" />
    <glyph glyph-name="zdotaccent" unicode="&#x17c;" horiz-adv-x="386" 
d="M180 700h27v-28h-27v28zM56 500h284v-18l-273 -464h274v-18h-296v18l273 463h-262v19z" />
    <glyph glyph-name="Zcaron" unicode="&#x17d;" horiz-adv-x="545" 
d="M373 900h28l-114 -125h-28l-114 125h28l100 -109zM68 700h409v-20l-394 -661h402v-19h-425v20l394 662h-386v18z" />
    <glyph glyph-name="zcaron" unicode="&#x17e;" horiz-adv-x="386" 
d="M293 700h28l-114 -125h-28l-114 125h28l100 -109zM56 500h284v-18l-273 -464h274v-18h-296v18l273 463h-262v19z" />
    <glyph glyph-name="florin" unicode="&#x192;" horiz-adv-x="373" 
d="M317 709h11v-18h-11q-34 0 -53 -5t-35 -23t-25.5 -49.5t-19.5 -89.5l-5 -24h127v-18h-130l-81 -482h-18l82 482h-114v18h117l6 37q8 46 17.5 76.5t20.5 49.5t28 29t35.5 13.5t47.5 3.5z" />
    <glyph glyph-name="Acaron" unicode="&#x1cd;" horiz-adv-x="553" 
d="M377 900h28l-114 -125h-28l-114 125h28l100 -109zM266 700h21l206 -700h-19l-75 251h-245l-74 -251h-20zM393 272l-116 396l-117 -396h233z" />
    <glyph glyph-name="acaron" unicode="&#x1ce;" 
d="M300 700h28l-114 -125h-28l-114 125h28l100 -109zM322 500h19v-500h-19v80q-34 -88 -126 -88q-29 0 -53.5 9t-46 28t-34 54.5t-12.5 84.5v165q0 49 12.5 84.5t34 54.5t46 28t53.5 9q42 0 75.5 -21t50.5 -64v76zM69 325v-149q0 -91 35.5 -128.5t91.5 -37.5q126 0 126 166
v149q0 166 -126 166q-25 0 -46.5 -7.5t-40.5 -25t-29.5 -51.5t-10.5 -82z" />
    <glyph glyph-name="Icaron" unicode="&#x1cf;" horiz-adv-x="180" 
d="M190 900h28l-114 -125h-28l-114 125h28l100 -109zM80 0v700h20v-700h-20z" />
    <glyph glyph-name="icaron" unicode="&#x1d0;" horiz-adv-x="219" 
d="M210 700h28l-114 -125h-28l-114 125h28l100 -109zM100 0v500h19v-500h-19z" />
    <glyph glyph-name="Ocaron" unicode="&#x1d1;" horiz-adv-x="545" 
d="M373 900h28l-114 -125h-28l-114 125h28l100 -109zM70 234v233q0 67 17 115.5t47 75t64 39t74 12.5q39 0 73.5 -12t64.5 -38.5t47.5 -75.5t17.5 -116v-233q0 -67 -17.5 -116t-47.5 -75.5t-64.5 -38.5t-73.5 -12q-40 0 -74 12.5t-64 39t-47 75t-17 115.5zM456 244v213
q0 67 -15.5 114.5t-43 72.5t-58 35.5t-67.5 10.5t-67.5 -10.5t-57.5 -35.5t-42 -72.5t-15 -114.5v-213q0 -67 15 -114.5t42 -72.5t57.5 -35.5t67.5 -10.5t67.5 10.5t58 35.5t43 72.5t15.5 114.5z" />
    <glyph glyph-name="ocaron" unicode="&#x1d2;" horiz-adv-x="391" 
d="M296 700h28l-114 -125h-28l-114 125h28l100 -109zM50 168v165q0 93 41.5 134.5t103.5 41.5q23 0 43 -5t39.5 -18t33 -32.5t22 -50.5t8.5 -70v-165q0 -49 -12.5 -84.5t-34 -54.5t-46 -28t-53.5 -9q-62 0 -103.5 41.5t-41.5 134.5zM322 176v149q0 48 -10.5 82t-29.5 51.5
t-40.5 25t-46.5 7.5q-126 0 -126 -166v-149q0 -166 126 -166q26 0 47.5 7.5t40 25.5t29 51.5t10.5 81.5z" />
    <glyph glyph-name="Ucaron" unicode="&#x1d3;" horiz-adv-x="556" 
d="M378 900h28l-114 -125h-28l-114 125h28l100 -109zM100 244v456h-20v-466q0 -66 17 -114.5t46 -75.5t63 -39.5t73 -12.5t73 12.5t63.5 39.5t46.5 75.5t17 114.5v466h-19v-456q0 -52 -10.5 -93t-27.5 -67t-40.5 -43t-48.5 -23.5t-54 -6.5q-37 0 -67.5 11.5t-56.5 37
t-40.5 72.5t-14.5 112z" />
    <glyph glyph-name="ucaron" unicode="&#x1d4;" horiz-adv-x="401" 
d="M301 700h28l-114 -125h-28l-114 125h28l100 -109zM327 500h19v-500h-19v79q-17 -45 -50 -66.5t-76 -21.5q-29 0 -53.5 9t-46 28t-34 54.5t-12.5 84.5v333h19v-325q0 -48 10.5 -82t29.5 -51.5t40.5 -25t46.5 -7.5q126 0 126 166v325z" />
    <glyph glyph-name="Udieresismacron" unicode="&#x1d5;" horiz-adv-x="556" 
d="M133 900h291v-20h-291v20zM220 722v28h26v-28h-26zM311 722v28h27v-28h-27zM100 244v456h-20v-466q0 -66 17 -114.5t46 -75.5t63 -39.5t73 -12.5t73 12.5t63.5 39.5t46.5 75.5t17 114.5v466h-19v-456q0 -52 -10.5 -93t-27.5 -67t-40.5 -43t-48.5 -24t-54 -7
q-37 0 -67.5 12t-56.5 37.5t-40.5 72.5t-14.5 112z" />
    <glyph glyph-name="udieresismacron" unicode="&#x1d6;" horiz-adv-x="401" 
d="M56 700h291v-20h-291v20zM142 538v28h27v-28h-27zM234 538v28h27v-28h-27zM327 500h19v-500h-19v79q-17 -45 -50 -66.5t-76 -21.5q-29 0 -53.5 9t-46 28t-34 54.5t-12.5 84.5v333h19v-325q0 -48 10.5 -82t29.5 -51.5t40.5 -25t46.5 -7.5q126 0 126 166v325z" />
    <glyph glyph-name="Udieresisacute" unicode="&#x1d7;" horiz-adv-x="556" 
d="M287 899h42l-80 -109h-22zM220 750h26v-28h-26v28zM311 750h27v-28h-27v28zM460 700h19v-466q0 -66 -17 -114.5t-46.5 -75.5t-63.5 -39.5t-73 -12.5t-73 12.5t-63 39.5t-46 75.5t-17 114.5v466h20v-456q0 -52 10 -93t26.5 -67t40 -43t48.5 -24t54 -7q36 0 66.5 12
t57 37.5t42 72.5t15.5 112v456z" />
    <glyph glyph-name="udieresisacute" unicode="&#x1d8;" horiz-adv-x="401" 
d="M210 699h42l-80 -109h-22zM142 538v28h27v-28h-27zM234 538v28h27v-28h-27zM327 500h19v-500h-19v79q-17 -45 -50 -66.5t-76 -21.5q-29 0 -53.5 9t-46 28t-34 54.5t-12.5 84.5v333h19v-325q0 -48 10.5 -82t29.5 -51.5t40.5 -25t46.5 -7.5q126 0 126 166v325z" />
    <glyph glyph-name="Udieresiscaron" unicode="&#x1d9;" horiz-adv-x="556" 
d="M378 899h28l-114 -124h-28l-114 124h28l100 -109zM220 722v28h26v-28h-26zM311 722v28h27v-28h-27zM100 244v456h-20v-466q0 -66 17 -114.5t46 -75.5t63 -39.5t73 -12.5t73 12.5t63.5 39.5t46.5 75.5t17 114.5v466h-19v-456q0 -52 -10.5 -93t-27.5 -67t-40.5 -43
t-48.5 -23.5t-54 -6.5q-37 0 -67.5 11.5t-56.5 37t-40.5 72.5t-14.5 112z" />
    <glyph glyph-name="udieresiscaron" unicode="&#x1da;" horiz-adv-x="401" 
d="M301 699h28l-114 -124h-28l-114 124h28l100 -109zM142 538v28h27v-28h-27zM234 538v28h27v-28h-27zM327 500h19v-500h-19v79q-17 -45 -50 -66.5t-76 -21.5q-29 0 -53.5 9t-46 28t-34 54.5t-12.5 84.5v333h19v-325q0 -48 10.5 -82t29.5 -51.5t40.5 -25t46.5 -7.5
q126 0 126 166v325z" />
    <glyph glyph-name="Udieresisgrave" unicode="&#x1db;" horiz-adv-x="556" 
d="M227 899h42l60 -109h-22zM220 722v28h26v-28h-26zM311 722v28h27v-28h-27zM100 244v456h-20v-466q0 -66 17 -114.5t46 -75.5t63 -39.5t73 -12.5t73 12.5t63.5 39.5t46.5 75.5t17 114.5v466h-19v-456q0 -52 -10.5 -93t-27.5 -67t-40.5 -43t-48.5 -24t-54 -7
q-37 0 -67.5 12t-56.5 37.5t-40.5 72.5t-14.5 112z" />
    <glyph glyph-name="udieresisgrave" unicode="&#x1dc;" horiz-adv-x="401" 
d="M150 699h42l60 -109h-22zM142 538v28h27v-28h-27zM234 538v28h27v-28h-27zM327 500h19v-500h-19v79q-17 -45 -50 -66.5t-76 -21.5q-29 0 -53.5 9t-46 28t-34 54.5t-12.5 84.5v333h19v-325q0 -48 10.5 -82t29.5 -51.5t40.5 -25t46.5 -7.5q126 0 126 166v325z" />
    <glyph glyph-name="Scommaaccent" unicode="&#x218;" horiz-adv-x="524" 
d="M458 497h-19q0 50 -15 89t-40.5 61t-54.5 32.5t-61 10.5t-60.5 -8t-52.5 -24.5t-38 -45.5t-14 -68q0 -27 7.5 -49t21 -38t27 -27.5t33 -20t32 -13t30.5 -10t23 -6.5q100 -34 143.5 -77.5t43.5 -124.5q0 -51 -15.5 -87.5t-44 -57.5t-64 -31t-78.5 -10q-35 0 -69 11.5
t-64.5 35t-49.5 66.5t-19 99h20q0 -53 17 -92t45 -60.5t58 -31.5t62 -10q83 0 133 40.5t50 127.5q0 40 -13 71t-38.5 52t-52.5 34t-65 26q-4 2 -27.5 9.5t-33 11t-31 13t-32 17.5t-26.5 22t-23.5 29t-13.5 36t-6 45q0 44 16 77t43 51.5t59 27.5t67 9q23 0 45.5 -5t44 -15.5
t39.5 -28t32 -40t21.5 -54.5t7.5 -69zM249 -140v28h27v-28l-14 -22h-7l5 22h-11z" />
    <glyph glyph-name="scommaaccent" unicode="&#x219;" horiz-adv-x="384" 
d="M64 144v-7q2 -68 39 -97.5t89 -29.5q128 0 128 120q0 50 -29 80t-85 49q-2 1 -20.5 7t-24.5 8t-23 9.5t-24 13t-19 15.5t-17.5 21t-10 26t-4.5 32q0 61 38.5 89.5t96.5 28.5q52 0 92 -35.5t44 -106.5v-10h-19v12q-2 44 -20 72.5t-42.5 39t-54.5 10.5q-116 0 -116 -100
q0 -20 7.5 -36.5t16 -26.5t26 -19.5t26 -13t28 -10t21.5 -6.5q70 -23 101 -59t31 -90q0 -48 -21.5 -80t-53 -45t-72.5 -13q-25 0 -49 8t-46 24t-36 45t-16 67v8h19zM179 -112h27v-28l-14 -22h-7l5 22h-11v28z" />
    <glyph glyph-name="uni021A" unicode="&#x21a;" horiz-adv-x="472" 
d="M60 700h352v-19h-166v-681h-20v681h-166v19zM223 -112h27v-28l-14 -22h-7l5 22h-11v28z" />
    <glyph glyph-name="uni021B" unicode="&#x21b;" horiz-adv-x="326" 
d="M154 483v-299q0 -49 4.5 -81.5t12 -51t23.5 -28t31.5 -12t43.5 -2.5h12v-18h-13q-29 0 -47.5 3.5t-36.5 14t-27.5 30.5t-15.5 53.5t-6 83.5v307h-90v17h90v153h19v-153h127v-17h-127zM150 -112h27v-28l-14 -22h-7l5 22h-11v28z" />
    <glyph glyph-name="circumflex" unicode="&#x2c6;" horiz-adv-x="356" 
d="M164 700h28l114 -125h-28l-100 109l-100 -109h-28z" />
    <glyph glyph-name="caron" unicode="&#x2c7;" horiz-adv-x="356" 
d="M278 700h28l-114 -125h-28l-114 125h28l100 -109z" />
    <glyph glyph-name="breve" unicode="&#x2d8;" horiz-adv-x="329" 
d="M72 700h-22q10 -38 42 -63t73 -25t72.5 24.5t41.5 63.5h-21q-6 -19 -20 -34.5t-33 -24t-40 -8.5q-33 0 -58 18.5t-35 48.5z" />
    <glyph glyph-name="dotaccent" unicode="&#x2d9;" horiz-adv-x="127" 
d="M50 672v28h27v-28h-27z" />
    <glyph glyph-name="ring" unicode="&#x2da;" horiz-adv-x="277" 
d="M138 700q24 0 44.5 -12t32.5 -32.5t12 -43.5q0 -38 -26 -64t-63 -26t-62.5 26t-25.5 64q0 36 25.5 62t62.5 26zM138 680q-29 0 -48.5 -20.5t-19.5 -47.5q0 -30 19.5 -50t48.5 -20q19 0 34.5 9t25 25.5t9.5 35.5q0 27 -20.5 47.5t-48.5 20.5z" />
    <glyph glyph-name="ogonek" unicode="&#x2db;" horiz-adv-x="199" 
d="M129 0h20q-23 -13 -37.5 -23.5t-28 -30t-13.5 -41.5q0 -50 61 -50h18v-20h-18q-81 0 -81 70q0 14 4.5 26.5t9.5 20.5t16.5 17t16 12.5t18 10.5t14.5 8z" />
    <glyph glyph-name="tilde" unicode="&#x2dc;" horiz-adv-x="351" 
d="M281 700h20v-19t-1 -19.5t-3 -21t-6 -18t-9.5 -16t-14.5 -10t-21 -4.5q-18 0 -35.5 11t-46.5 42q-22 23 -33.5 29t-25.5 6q-21 0 -28 -20t-7 -68h-20q0 15 0.5 22.5t1.5 23t4.5 24t9 19t15.5 15t24 4.5q15 0 29.5 -8t24 -16.5t28.5 -28.5q14 -17 26.5 -25t18 -9t14.5 -1
q21 0 28 20t7 68z" />
    <glyph glyph-name="hungarumlaut" unicode="&#x2dd;" horiz-adv-x="296" 
d="M110 700h42l-80 -110h-22zM205 700h41l-80 -110h-21z" />
    <glyph glyph-name="commaaccentcomb" unicode="&#x326;" horiz-adv-x="0" 
d="M50 -112h27v-28l-14 -23h-7l5 23h-11v28z" />
    <glyph glyph-name="Delta" unicode="&#x394;" horiz-adv-x="519" 
d="M469 24v-24h-419v24l199 676h21zM69 21h382l-191 648z" />
    <glyph glyph-name="Omega" unicode="&#x3a9;" horiz-adv-x="518" 
d="M58 234v233q0 67 17 115.5t47 75t64 39t74 12.5q39 0 73.5 -12t64.5 -38.5t47.5 -75.5t17.5 -116v-233q0 -158 -95 -214h100v-20h-144v20q120 40 120 224v213q0 67 -15.5 114.5t-43 72.5t-58 35.5t-67.5 10.5t-67.5 -10.5t-57.5 -35.5t-42 -72.5t-15 -114.5v-213
q0 -184 116 -223v-21h-144v20h102q-94 57 -94 214z" />
    <glyph glyph-name="mu" unicode="&#x3bc;" horiz-adv-x="522" 
d="M332 501h19v-334q1 -46 13 -79t31 -49t39 -23t43 -7v-18h-10q-42 3 -76 27.5t-49 75.5q-16 -54 -53 -78t-84 -24q-43 0 -76 21.5t-50 66.5v-243h-19v664h19v-325q0 -166 126 -166q25 0 46.5 7.5t40.5 25t29.5 51.5t10.5 82v325z" />
    <glyph glyph-name="pi" unicode="&#x3c0;" horiz-adv-x="611" 
d="M45 500h520v-20h-126v-313q1 -37 9.5 -66t20.5 -46t29 -28t33 -14.5t34 -3.5v-18h-9q-26 2 -48 11t-42.5 28t-32.5 53t-12 80v317h-231v-480h-19v480h-126v20z" />
    <glyph glyph-name="afii10017" unicode="&#x410;" horiz-adv-x="553" 
d="M474 0l-75 251h-245l-74 -251h-20l206 700h21l206 -700h-19zM160 272h233l-116 396z" />
    <glyph glyph-name="afii10018" unicode="&#x411;" horiz-adv-x="491" 
d="M80 709h315v-18h-295v-319h141q97 0 153.5 -47.5t56.5 -133.5v-18q0 -87 -56.5 -134t-153.5 -47h-161v717zM241 353h-141v-342h141q90 0 140.5 41t50.5 126v8q0 84 -51.5 125.5t-139.5 41.5z" />
    <glyph glyph-name="afii10019" unicode="&#x412;" horiz-adv-x="491" 
d="M80 709h161q38 0 72.5 -9.5t63.5 -28.5t46.5 -53t17.5 -78v-18q0 -63 -33.5 -103t-90.5 -56q64 -16 99 -60t35 -112v-18q0 -87 -56 -134t-154 -47h-161v717zM422 527v8q0 44 -15.5 75.5t-42.5 48.5t-57.5 24.5t-65.5 7.5h-141v-319h141q35 0 65.5 8t57 25t42.5 48.5
t16 73.5zM432 178v8q0 84 -51.5 125.5t-139.5 41.5h-141v-343h141q90 0 140.5 41.5t50.5 126.5z" />
    <glyph glyph-name="afii10020" unicode="&#x413;" horiz-adv-x="455" 
d="M395 700v-19h-295v-681h-20v700h315z" />
    <glyph glyph-name="afii10021" unicode="&#x414;" horiz-adv-x="655" 
d="M554 19h61v-139h-19v120h-536v-120h-20v139h49q54 17 87 71.5t33 153.5v456h345v-681zM134 19h401v662h-306v-447q0 -157 -95 -215z" />
    <glyph glyph-name="afii10022" unicode="&#x415;" horiz-adv-x="423" 
d="M383 681h-283v-309h273v-19h-273v-334h283v-19h-303v700h303v-19z" />
    <glyph glyph-name="afii10024" unicode="&#x416;" horiz-adv-x="842" 
d="M782 0h-27l-324 350v-350h-20v350l-323 -350h-28l335 361l-310 339h28l298 -327v327h20v-327l299 327h27l-309 -339z" />
    <glyph glyph-name="afii10025" unicode="&#x417;" horiz-adv-x="502" 
d="M244 709h23q28 0 58.5 -9.5t59.5 -28.5t48 -53t19 -78v-18q0 -63 -33.5 -103t-89.5 -56q63 -16 98 -60t35 -112v-18q0 -84 -57.5 -132.5t-137.5 -48.5h-23q-33 1 -64 11.5t-60 31t-50 55.5t-29 81l-1 7h20q6 -46 26.5 -80t48.5 -52t57.5 -27t60.5 -9h14q46 0 84.5 17
t65 56t26.5 95v8q0 42 -14 74.5t-39.5 52.5t-58.5 30t-74 10h-65v19h65q33 0 62.5 8t56 25t42 48.5t15.5 73.5v8q0 35 -12 63t-29.5 45t-40.5 28t-43.5 15t-40.5 4h-14q-30 0 -58.5 -8t-56 -25t-47.5 -48.5t-28 -73.5h-21l2 8q12 56 45.5 94t72.5 54t82 18z" />
    <glyph glyph-name="afii10026" unicode="&#x418;" horiz-adv-x="521" 
d="M421 700h20v-700h-20v660l-321 -660h-20v700h20v-660z" />
    <glyph glyph-name="afii10027" unicode="&#x419;" horiz-adv-x="521" 
d="M358 838h21q-10 -39 -41.5 -63.5t-72.5 -24.5t-73 24.5t-42 63.5h22q10 -30 35 -48.5t58 -18.5q32 0 57.5 18.5t35.5 48.5zM421 700h20v-700h-20v660l-321 -660h-20v700h20v-660z" />
    <glyph glyph-name="afii10028" unicode="&#x41a;" horiz-adv-x="511" 
d="M451 0h-28l-323 350v-350h-20v700h20v-327l298 327h28l-310 -339z" />
    <glyph glyph-name="afii10029" unicode="&#x41b;" horiz-adv-x="638" 
d="M213 700h345v-700h-19v681h-306v-447q0 -64 -16 -112t-43.5 -75t-58.5 -40t-67 -15h-8v19q33 0 62.5 11.5t55 37t40.5 73t15 111.5v456z" />
    <glyph glyph-name="afii10030" unicode="&#x41c;" horiz-adv-x="627" 
d="M527 700h20v-700h-20v638l-203 -638h-21l-203 638v-638h-20v700h20l214 -671z" />
    <glyph glyph-name="afii10031" unicode="&#x41d;" horiz-adv-x="520" 
d="M421 700h19v-700h-19v353h-321v-353h-20v700h20v-328h321v328z" />
    <glyph glyph-name="afii10032" unicode="&#x41e;" horiz-adv-x="555" 
d="M75 234v233q0 67 17 115.5t47 75t64 39t74 12.5q39 0 73.5 -12t64.5 -38.5t47.5 -75.5t17.5 -116v-233q0 -67 -17.5 -116t-47.5 -75.5t-64.5 -38.5t-73.5 -12q-40 0 -74 12.5t-64 39t-47 75t-17 115.5zM461 244v213q0 67 -15.5 114.5t-43 72.5t-58 35.5t-67.5 10.5
t-67.5 -10.5t-57.5 -35.5t-42 -72.5t-15 -114.5v-213q0 -67 15 -114.5t42 -72.5t57.5 -35.5t67.5 -10.5t67.5 10.5t58 35.5t43 72.5t15.5 114.5z" />
    <glyph glyph-name="afii10033" unicode="&#x41f;" horiz-adv-x="520" 
d="M80 700h360v-700h-19v681h-321v-681h-20v700z" />
    <glyph glyph-name="afii10034" unicode="&#x420;" horiz-adv-x="506" 
d="M80 700h151q38 0 72 -9t63.5 -28.5t47 -54t17.5 -80.5v-31q0 -45 -17.5 -79t-47 -53.5t-64 -29.5t-71.5 -10h-131v-325h-20v700zM412 502v21q0 46 -15.5 78.5t-43 49t-57 24t-65.5 7.5h-131v-338h131q35 0 65.5 7.5t57.5 24.5t42.5 49.5t15.5 76.5z" />
    <glyph glyph-name="afii10035" unicode="&#x421;" horiz-adv-x="520" 
d="M80 234v233q0 67 17 115.5t47 75t64 39t74 12.5q38 0 70.5 -11t61 -35.5t46.5 -69.5t20 -107v-9h-19l-1 11q-4 58 -20 99t-41.5 62.5t-54 31t-62.5 9.5q-37 0 -67.5 -10.5t-57.5 -35.5t-42 -72.5t-15 -114.5v-213q0 -67 15 -114.5t42 -72.5t57.5 -35.5t67.5 -10.5
q27 0 51 5.5t46.5 20t39 37.5t28 59t14.5 83v8h19v-8q-2 -62 -20 -107t-46.5 -70t-61 -36t-70.5 -11q-40 0 -74 12.5t-64 39t-47 75t-17 115.5z" />
    <glyph glyph-name="afii10036" unicode="&#x422;" horiz-adv-x="472" 
d="M412 700v-19h-166v-681h-20v681h-166v19h352z" />
    <glyph glyph-name="afii10037" unicode="&#x423;" horiz-adv-x="516" 
d="M433 700h23l-187 -408v-292h-20v292l-189 408h23l175 -384z" />
    <glyph glyph-name="afii10038" unicode="&#x424;" horiz-adv-x="772" 
d="M396 709v-82h101q38 0 72 -9t63.5 -28t47 -54t17.5 -81v-21q0 -45 -17.5 -79.5t-47 -54t-63.5 -29t-72 -9.5h-101v-262h-20v262h-101q-37 0 -71.5 9.5t-64 29t-47 54t-17.5 79.5v21q0 46 17.5 81t47.5 54t63.5 28t71.5 9h101v82h20zM678 439v11q0 46 -15.5 78.5t-43 49
t-57 23.5t-65.5 7h-101v-327h101q36 0 66 7.5t57 24t42.5 49t15.5 77.5zM376 281v327h-101q-36 0 -65.5 -7t-56.5 -23.5t-42.5 -49t-15.5 -78.5v-11q0 -36 10.5 -64.5t27.5 -45.5t41 -28.5t48.5 -15.5t52.5 -4h101z" />
    <glyph glyph-name="afii10039" unicode="&#x425;" horiz-adv-x="505" 
d="M445 700l-183 -349l183 -351h-22l-170 329l-171 -329h-22l182 350l-182 350h22l170 -328l171 328h22z" />
    <glyph glyph-name="afii10040" unicode="&#x426;" horiz-adv-x="552" 
d="M440 21h72v-121h-20v100h-412v700h20v-681h321v681h19v-679z" />
    <glyph glyph-name="afii10041" unicode="&#x427;" horiz-adv-x="460" 
d="M380 700h20v-700h-20v375q-36 -91 -160 -91q-38 0 -69 9t-57 28.5t-40 54.5t-14 84v240h20v-232q0 -33 5.5 -58.5t16.5 -43.5t25 -30.5t32.5 -19.5t38 -10t42.5 -3q36 0 63 7t50 24.5t35 51t12 82.5v232z" />
    <glyph glyph-name="afii10042" unicode="&#x428;" horiz-adv-x="861" 
d="M761 700h19v-700h-700v700h20v-681h321v681h19v-681h321v681z" />
    <glyph glyph-name="afii10043" unicode="&#x429;" horiz-adv-x="893" 
d="M780 21h72v-121h-20v100h-752v700h20v-681h321v681h19v-681h321v681h19v-679z" />
    <glyph glyph-name="afii10044" unicode="&#x42a;" horiz-adv-x="610" 
d="M184 372h141q98 0 154 -47.5t56 -133.5v-18q0 -87 -56 -134t-154 -47h-161v697h-104v20h124v-337zM516 178v8q0 84 -51.5 125.5t-139.5 41.5h-141v-343h141q90 0 140.5 41.5t50.5 126.5z" />
    <glyph glyph-name="afii10045" unicode="&#x42b;" horiz-adv-x="662" 
d="M100 709v-337h141q97 0 153.5 -47.5t56.5 -133.5v-18q0 -87 -56 -134t-154 -47h-161v717h20zM562 700h20v-700h-20v700zM100 10h141q90 0 140.5 41.5t50.5 126.5v8q0 84 -51.5 125.5t-139.5 41.5h-141v-343z" />
    <glyph glyph-name="afii10046" unicode="&#x42c;" horiz-adv-x="526" 
d="M100 709v-337h141q97 0 153.5 -47.5t56.5 -133.5v-18q0 -87 -56 -134t-154 -47h-161v717h20zM100 10h141q90 0 140.5 41.5t50.5 126.5v8q0 84 -51.5 125.5t-139.5 41.5h-141v-343z" />
    <glyph glyph-name="afii10047" unicode="&#x42d;" horiz-adv-x="520" 
d="M40 477v6q2 62 19.5 107.5t46.5 70.5t61.5 36.5t70.5 11.5q26 0 50 -5t47 -16.5t41.5 -30.5t33 -45t22.5 -63t8 -82v-233q0 -67 -17 -115.5t-47 -75t-64 -39t-74 -12.5q-38 0 -70.5 11.5t-61.5 36.5t-46.5 70.5t-19.5 108.5v5h20q2 -61 17.5 -104t41.5 -66t55 -33t64 -10
q37 0 67.5 10.5t57.5 35.5t42 72.5t15 114.5v98h-245v21h245v94q0 67 -15 114.5t-42 72.5t-57.5 35.5t-67.5 10.5q-35 0 -64 -10t-55 -33t-41.5 -66t-17.5 -104h-20z" />
    <glyph glyph-name="afii10048" unicode="&#x42e;" horiz-adv-x="711" 
d="M231 363v104q0 67 17 115.5t47 75t64 39t74 12.5q31 0 59 -7t54.5 -24.5t46 -44.5t31.5 -69.5t12 -96.5v-233q0 -67 -17.5 -116t-47.5 -75.5t-64.5 -38.5t-73.5 -12q-40 0 -74 12.5t-64 39t-47 75t-17 115.5v108h-131v-342h-20v700h20v-337h131zM616 244v213
q0 67 -15.5 114.5t-42.5 72.5t-57.5 35.5t-67.5 10.5t-68 -10.5t-57.5 -35.5t-42 -72.5t-15.5 -114.5v-213q0 -67 15.5 -114.5t42 -72.5t57.5 -35.5t68 -10.5t67.5 10.5t57.5 35.5t42.5 72.5t15.5 114.5z" />
    <glyph glyph-name="afii10049" unicode="&#x42f;" horiz-adv-x="504" 
d="M263 709h161v-709h-20v345h-158l-162 -345h-24l162 347q-32 5 -59.5 16.5t-50.5 31.5t-36 51t-13 70v21q0 46 17.5 81t47 54t63.5 28t72 9zM404 363v328h-141q-36 0 -65.5 -7.5t-57 -24t-42.5 -49t-15 -78.5v-11q0 -45 15.5 -77t42.5 -49t57 -24.5t65 -7.5h141z" />
    <glyph glyph-name="afii10065" unicode="&#x430;" 
d="M322 500h19v-500h-19v80q-34 -88 -126 -88q-29 0 -53.5 9t-46 28t-34 54.5t-12.5 84.5v165q0 49 12.5 84.5t34 54.5t46 28t53.5 9q42 0 75.5 -21t50.5 -64v76zM69 325v-149q0 -91 35.5 -128.5t91.5 -37.5q126 0 126 166v149q0 166 -126 166q-25 0 -46.5 -7.5t-40.5 -25
t-29.5 -51.5t-10.5 -82z" />
    <glyph glyph-name="afii10066" unicode="&#x431;" 
d="M58 168v370q1 90 42.5 130.5t102.5 40.5q29 0 53.5 -8.5t46.5 -30t34 -54.5l3 -9h-21q-27 84 -116 84q-126 0 -126 -166v-100q19 41 52.5 62.5t73.5 21.5q23 0 43 -5t39.5 -18t33 -32.5t22 -50.5t8.5 -70v-165q0 -49 -12.5 -84.5t-34 -54.5t-46 -28t-53.5 -9
q-60 0 -101 43t-44 133zM330 176v149q0 48 -10.5 82t-29.5 51.5t-40.5 25t-46.5 7.5t-47 -9t-40 -27.5t-28.5 -51.5t-10.5 -78v-149q0 -166 126 -166q56 0 91.5 37.5t35.5 128.5z" />
    <glyph glyph-name="afii10067" unicode="&#x432;" horiz-adv-x="388" 
d="M60 509h101q95 0 132.5 -32t37.5 -102q0 -49 -19 -77.5t-64 -41.5q50 -12 72.5 -42.5t22.5 -84.5q0 -73 -41.5 -105t-141.5 -32h-100v517zM79 265h73q49 0 80.5 6t49.5 20t24.5 33.5t6.5 49.5q0 63 -33.5 90t-127.5 27h-73v-226zM79 10h73q99 0 136 26t37 92t-37.5 92.5
t-135.5 26.5h-73v-237z" />
    <glyph glyph-name="afii10068" unicode="&#x433;" horiz-adv-x="370" 
d="M325 500v-18h-246v-482h-19v500h265z" />
    <glyph glyph-name="afii10069" unicode="&#x434;" horiz-adv-x="520" 
d="M152 500h268v-482h55v-122h-18v104h-393v-104h-19v122h30q75 30 77 149v333zM401 18v464h-230v-319q-1 -102 -59 -145h289z" />
    <glyph glyph-name="afii10070" unicode="&#x435;" horiz-adv-x="388" 
d="M50 168v165q0 93 41.5 134.5t103.5 41.5q28 0 52.5 -9t46 -28t34 -54.5t12.5 -84.5v-98h-271v-59q0 -166 126 -166q52 0 87.5 34t38.5 116h19q-2 -89 -43.5 -128.5t-101.5 -39.5q-29 0 -53.5 9t-45.5 28.5t-33.5 55t-12.5 83.5zM321 253v72q0 48 -10.5 82t-29.5 51.5
t-40 25t-46 7.5q-126 0 -126 -166v-72h252z" />
    <glyph glyph-name="afii10072" unicode="&#x436;" horiz-adv-x="593" 
d="M548 0h-24l-218 245v-245h-19v245l-218 -245h-24l228 255l-217 245h24l207 -235v235h19v-235l207 235h24l-217 -245z" />
    <glyph glyph-name="afii10073" unicode="&#x437;" horiz-adv-x="419" 
d="M194 509h27q65 0 103 -37t38 -97q0 -94 -88 -119q100 -24 100 -127q0 -63 -42.5 -100t-111.5 -37h-26q-23 2 -45 9t-43.5 21t-35 38.5t-13.5 56.5h20q0 -31 13 -53.5t34.5 -33.5t42 -15.5t40.5 -4.5h5q44 0 76.5 13.5t50 40t17.5 64.5q0 119 -153 119h-49v18h49
q76 0 108.5 28t32.5 81q0 54 -34 85.5t-98 31.5h-5q-16 0 -32 -2.5t-34 -10t-32 -19t-23 -31t-9 -44.5h-20q0 32 13.5 56.5t35 38.5t43.5 21t45 9z" />
    <glyph glyph-name="afii10074" unicode="&#x438;" horiz-adv-x="408" 
d="M329 500h19v-500h-19v466l-250 -466h-19v500h19v-466z" />
    <glyph glyph-name="afii10075" unicode="&#x439;" horiz-adv-x="408" 
d="M295 700h22q-10 -38 -42 -63t-73 -25t-73 25t-42 63h22q10 -30 35.5 -48.5t57.5 -18.5q33 0 58 18.5t35 48.5zM329 500h19v-500h-19v466l-250 -466h-19v500h19v-466z" />
    <glyph glyph-name="afii10076" unicode="&#x43a;" horiz-adv-x="366" 
d="M321 0h-24l-218 245v-245h-19v500h19v-235l207 235h24l-217 -245z" />
    <glyph glyph-name="afii10077" unicode="&#x43b;" horiz-adv-x="499" 
d="M171 500h268v-500h-18v482h-231v-319q0 -46 -12.5 -80.5t-32.5 -53t-42.5 -27.5t-47.5 -11h-10v18q23 0 43 7t39.5 23t31 49t12.5 79v333z" />
    <glyph glyph-name="afii10078" unicode="&#x43c;" horiz-adv-x="451" 
d="M372 500h19v-500h-19v440l-137 -440h-19l-137 440v-440h-19v500h19l146 -470z" />
    <glyph glyph-name="afii10079" unicode="&#x43d;" horiz-adv-x="408" 
d="M329 500h19v-500h-19v249h-250v-249h-19v500h19v-233h250v233z" />
    <glyph glyph-name="afii10080" unicode="&#x43e;" horiz-adv-x="391" 
d="M50 168v165q0 93 41.5 134.5t103.5 41.5q23 0 43 -5t39.5 -18t33 -32.5t22 -50.5t8.5 -70v-165q0 -49 -12.5 -84.5t-34 -54.5t-46 -28t-53.5 -9t-53.5 9t-45.5 28.5t-33.5 55t-12.5 83.5zM322 176v149q0 48 -10.5 82t-29.5 51.5t-40.5 25t-46.5 7.5q-126 0 -126 -166
v-149q0 -166 126 -166q56 0 91.5 37.5t35.5 128.5z" />
    <glyph glyph-name="afii10081" unicode="&#x43f;" horiz-adv-x="408" 
d="M60 500h288v-500h-19v482h-250v-482h-19v500z" />
    <glyph glyph-name="afii10082" unicode="&#x440;" 
d="M77 500v-80q34 88 126 88q29 0 53.5 -9t46 -28t34 -54.5t12.5 -84.5v-165q0 -49 -12.5 -84.5t-34 -54.5t-46 -28t-53.5 -9q-42 0 -75.5 21t-50.5 64v-239h-19v663h19zM330 175v149q0 91 -35.5 128.5t-91.5 37.5q-126 0 -126 -166v-149q0 -166 126 -166q25 0 46.5 7.5
t40.5 25t29.5 51.5t10.5 82z" />
    <glyph glyph-name="afii10083" unicode="&#x441;" horiz-adv-x="389" 
d="M50 168v165q0 93 41.5 134.5t103.5 41.5q60 0 101.5 -39t44.5 -127v-10h-19q-1 45 -12 77.5t-30 49.5t-39.5 24t-45.5 7q-126 0 -126 -166v-149q0 -166 126 -166q124 0 127 158h19v-10q-3 -88 -44.5 -127t-101.5 -39q-29 0 -53.5 9t-45.5 28.5t-33.5 55t-12.5 83.5z" />
    <glyph glyph-name="afii10084" unicode="&#x442;" horiz-adv-x="405" 
d="M45 500h315v-18h-148v-482h-19v482h-148v18z" />
    <glyph glyph-name="afii10085" unicode="&#x443;" horiz-adv-x="381" 
d="M317 500h19v-513q-4 -84 -45 -121.5t-100 -37.5q-47 0 -83.5 23.5t-52.5 76.5h21q27 -82 115 -82q126 0 126 166v76q-17 -45 -50 -66.5t-76 -21.5q-23 0 -43 5t-39.5 18t-33 32.5t-22 50.5t-8.5 70v324h19v-316q0 -48 10.5 -82t29.5 -51.5t40.5 -25t46.5 -7.5
q126 0 126 166v316z" />
    <glyph glyph-name="afii10086" unicode="&#x444;" horiz-adv-x="663" 
d="M322 700h19v-280q34 88 126 88q29 0 53.5 -9t46 -28t34 -54.5t12.5 -84.5v-165q0 -49 -12.5 -84.5t-34 -54.5t-46 -28t-53.5 -9q-42 0 -75.5 21t-50.5 64v-239h-19v239q-17 -43 -50.5 -64t-75.5 -21q-23 0 -43 5t-39.5 18t-33 32.5t-22 50.5t-8.5 70v165q0 39 8.5 70
t22 50.5t33 32.5t39.5 18t43 5q92 0 126 -88v280zM322 175v149q0 166 -126 166q-56 0 -91.5 -37.5t-35.5 -128.5v-149q0 -48 10.5 -82t29.5 -51.5t40.5 -25t46.5 -7.5q126 0 126 166zM595 175v149q0 91 -36 128.5t-92 37.5q-126 0 -126 -166v-149q0 -166 126 -166
q26 0 47 7.5t40 25t30 51.5t11 82z" />
    <glyph glyph-name="afii10087" unicode="&#x445;" horiz-adv-x="390" 
d="M345 500l-141 -249l141 -251h-21l-129 231l-129 -231h-21l140 249l-140 251h21l129 -231l129 231h21z" />
    <glyph glyph-name="afii10088" unicode="&#x446;" horiz-adv-x="452" 
d="M348 18h59v-101h-19v83h-328v500h19v-482h250v482h19v-482z" />
    <glyph glyph-name="afii10089" unicode="&#x447;" horiz-adv-x="406" 
d="M327 500h19v-500h-19v248q-17 -44 -50 -66t-76 -22q-29 0 -53.5 9t-46 28t-34 55t-12.5 84v164h19v-156q0 -48 10.5 -82t29.5 -51.5t40.5 -25t46.5 -7.5q126 0 126 166v156z" />
    <glyph glyph-name="afii10090" unicode="&#x448;" horiz-adv-x="677" 
d="M599 500h18v-500h-557v500h19v-482h250v482h19v-482h251v482z" />
    <glyph glyph-name="afii10091" unicode="&#x449;" horiz-adv-x="721" 
d="M617 18h59v-101h-18v83h-598v500h19v-482h250v482h19v-482h251v482h18v-482z" />
    <glyph glyph-name="afii10092" unicode="&#x44a;" horiz-adv-x="431" 
d="M132 265h72q98 0 140 -32t42 -104v-5q-2 -70 -43.5 -101t-139.5 -31h-90v490h-68v18h87v-235zM368 124v4q0 66 -37.5 92.5t-135.5 26.5h-63v-237h63q50 0 82.5 5.5t53 19.5t29 35.5t8.5 53.5z" />
    <glyph glyph-name="afii10093" unicode="&#x44b;" horiz-adv-x="495" 
d="M60 500h19v-235h72q98 0 140 -32t42 -104v-5q-2 -70 -43.5 -101t-139.5 -31h-90v508zM416 0v500h19v-500h-19zM315 124v4q0 66 -37.5 92.5t-135.5 26.5h-63v-237h63q50 0 82.5 5.5t53 19.5t29 35.5t8.5 53.5z" />
    <glyph glyph-name="afii10094" unicode="&#x44c;" horiz-adv-x="378" 
d="M60 500h19v-235h72q98 0 140 -32t42 -104v-5q-2 -70 -43.5 -101t-139.5 -31h-90v508zM315 124v4q0 66 -38 92.5t-135 26.5h-63v-237h63q50 0 82.5 5.5t53 19.5t29 35.5t8.5 53.5z" />
    <glyph glyph-name="afii10095" unicode="&#x44d;" horiz-adv-x="389" 
d="M67 333h-19q0 49 12.5 84.5t34 54.5t46 28t53.5 9q62 0 103.5 -41.5t41.5 -134.5v-165q0 -93 -41.5 -134.5t-103.5 -41.5q-29 0 -53.5 9t-46 28t-34 54.5t-12.5 84.5h19q4 -158 127 -158q126 0 126 166v68h-154v17h154v64q0 166 -126 166q-54 0 -89.5 -35.5t-37.5 -122.5
z" />
    <glyph glyph-name="afii10096" unicode="&#x44e;" horiz-adv-x="536" 
d="M195 257v76q0 39 8 69.5t22 50.5t33 32.5t39 18t43 5.5q29 0 53.5 -9t46 -28t34 -54.5t12.5 -84.5v-165q0 -49 -12.5 -84.5t-34 -54.5t-46 -28t-53.5 -9q-62 0 -103.5 41.5t-41.5 134.5v73h-116v-241h-19v500h19v-243h116zM467 176v149q0 28 -3.5 51.5t-10.5 40t-16.5 30
t-20.5 21.5t-24 13.5t-25.5 7.5t-26.5 2q-126 0 -126 -166v-149q0 -166 126 -166q56 0 91.5 37.5t35.5 128.5z" />
    <glyph glyph-name="afii10097" unicode="&#x44f;" horiz-adv-x="381" 
d="M220 509h101v-509h-19v247l-122 2l-115 -249h-20l116 251q-60 9 -85 37.5t-26 81.5v5q0 35 8 59t27.5 41.5t52.5 25.5t82 8zM229 265h73v226h-73q-65 0 -100.5 -13t-48 -37t-12.5 -67q0 -60 33 -84.5t128 -24.5z" />
    <glyph glyph-name="Wgrave" unicode="&#x1e80;" horiz-adv-x="827" 
d="M363 900h42l60 -110h-22zM748 700h19l-170 -700h-19l-164 663l-164 -663h-20l-170 700h20l160 -660l163 660h21l163 -660z" />
    <glyph glyph-name="wgrave" unicode="&#x1e81;" horiz-adv-x="696" 
d="M297 700h42l60 -110h-22zM632 500h19l-141 -500h-20l-142 468l-141 -468h-21l-141 500h20l132 -468l141 468h20l142 -468z" />
    <glyph glyph-name="Wacute" unicode="&#x1e82;" horiz-adv-x="827" 
d="M423 900h42l-80 -110h-22zM748 700h19l-170 -700h-19l-164 663l-164 -663h-20l-170 700h20l160 -660l163 660h21l163 -660z" />
    <glyph glyph-name="wacute" unicode="&#x1e83;" horiz-adv-x="696" 
d="M357 700h42l-80 -110h-22zM632 500h19l-141 -500h-20l-142 468l-141 -468h-21l-141 500h20l132 -468l141 468h20l142 -468z" />
    <glyph glyph-name="Wdieresis" unicode="&#x1e84;" horiz-adv-x="827" 
d="M355 900h27v-28h-27v28zM447 900h27v-28h-27v28zM748 700h19l-170 -700h-19l-164 663l-164 -663h-20l-170 700h20l160 -660l163 660h21l163 -660z" />
    <glyph glyph-name="wdieresis" unicode="&#x1e85;" horiz-adv-x="696" 
d="M289 700h27v-28h-27v28zM381 700h27v-28h-27v28zM632 500h19l-141 -500h-20l-142 468l-141 -468h-21l-141 500h20l132 -468l141 468h20l142 -468z" />
    <glyph glyph-name="Ygrave" unicode="&#x1ef2;" horiz-adv-x="507" 
d="M203 900h42l60 -110h-22zM424 700h23l-186 -401v-299h-20v299l-181 401h22l169 -379z" />
    <glyph glyph-name="ygrave" unicode="&#x1ef3;" horiz-adv-x="381" 
d="M140 700h42l60 -110h-22zM317 500h19v-513q-4 -84 -45 -121.5t-100 -37.5q-47 0 -83.5 23.5t-52.5 76.5h21q27 -82 115 -82q126 0 126 166v76q-17 -45 -50 -66.5t-76 -21.5q-23 0 -43 5t-39.5 18t-33 32.5t-22 50.5t-8.5 70v324h19v-316q0 -48 10.5 -82t29.5 -51.5
t40.5 -25t46.5 -7.5q126 0 126 166v316z" />
    <glyph glyph-name="endash" unicode="&#x2013;" horiz-adv-x="472" 
d="M50 279h372v-20h-372v20z" />
    <glyph glyph-name="emdash" unicode="&#x2014;" horiz-adv-x="640" 
d="M50 279h540v-20h-540v20z" />
    <glyph glyph-name="quoteleft" unicode="&#x2018;" horiz-adv-x="127" 
d="M66 677h11v-27h-27v27l14 23h7z" />
    <glyph glyph-name="quoteright" unicode="&#x2019;" horiz-adv-x="127" 
d="M50 700h27v-28l-14 -22h-7l5 22h-11v28z" />
    <glyph glyph-name="quotesinglbase" unicode="&#x201a;" horiz-adv-x="127" 
d="M50 28h27v-28l-14 -23h-7l5 23h-11v28z" />
    <glyph glyph-name="quotedblleft" unicode="&#x201c;" horiz-adv-x="218" 
d="M71 700l-5 -23h11v-27h-27v27l14 23h7zM158 677h10v-27h-26v27l13 23h7z" />
    <glyph glyph-name="quotedblright" unicode="&#x201d;" horiz-adv-x="218" 
d="M50 672v28h27v-28l-14 -22h-7l5 22h-11zM142 700h26v-28l-14 -22h-7l5 22h-10v28z" />
    <glyph glyph-name="quotedblbase" unicode="&#x201e;" horiz-adv-x="127" 
d="M50 28h27v-28l-14 -23h-7l5 23h-11v28z" />
    <glyph glyph-name="dagger" unicode="&#x2020;" horiz-adv-x="348" 
d="M164 700h20v-201h114v-20h-114v-539h-20v539h-114v20h114v201z" />
    <glyph glyph-name="daggerdbl" unicode="&#x2021;" horiz-adv-x="348" 
d="M164 700h20v-201h114v-20h-114v-318h114v-20h-114v-201h-20v201h-114v20h114v318h-114v20h114v201z" />
    <glyph glyph-name="bullet" unicode="&#x2022;" horiz-adv-x="318" 
d="M158.5 420q45.5 0 77.5 -31.5t32 -76.5q0 -46 -32 -77.5t-77.5 -31.5t-77 31.5t-31.5 77.5q0 45 31.5 76.5t77 31.5z" />
    <glyph glyph-name="ellipsis" unicode="&#x2026;" horiz-adv-x="370" 
d="M50 0v28h27v-28h-27zM172 0v28h26v-28h-26zM294 0v28h26v-28h-26z" />
    <glyph glyph-name="perthousand" unicode="&#x2030;" horiz-adv-x="862" 
d="M50 493v119q0 21 7 38.5t17.5 27.5t24 17t25.5 9.5t23 2.5q35 0 66 -23t31 -72v-119q0 -25 -10 -44.5t-25.5 -29.5t-31 -15t-30.5 -6q-11 0 -23 2.5t-25.5 9.5t-24 17.5t-17.5 27.5t-7 38zM521 700h24l-436 -700h-23zM224 493v119q0 38 -24 56.5t-53 18.5
q-28 0 -52.5 -18t-24.5 -57v-119q0 -39 24.5 -57t52.5 -18q29 1 53 19.5t24 55.5zM387 88v119q0 26 10 46t26 30t31.5 14.5t29.5 4.5q35 0 66 -23.5t31 -71.5v-119q0 -49 -31 -72t-66 -23q-14 0 -29.5 4.5t-31.5 14.5t-26 29.5t-10 46.5zM619 88v119q0 26 10 46t26 30
t31 14.5t30 4.5q35 0 65.5 -23.5t30.5 -71.5v-119q0 -49 -30.5 -72t-65.5 -23q-15 0 -30 4.5t-31 14.5t-26 29.5t-10 46.5zM561 88v119q0 37 -24 56t-53 19q-28 0 -52.5 -18t-24.5 -57v-119q0 -27 14 -45t30 -24t33 -6q29 0 53 18.5t24 56.5zM793 88v119q0 37 -24.5 56
t-52.5 19t-53 -18t-25 -57v-119q0 -27 14.5 -45t30.5 -24t33 -6q28 0 52.5 18.5t24.5 56.5z" />
    <glyph glyph-name="guilsinglleft" unicode="&#x2039;" horiz-adv-x="216" 
d="M50 291l116 92v-26l-100 -79l100 -78v-26l-116 92v25z" />
    <glyph glyph-name="guilsinglright" unicode="&#x203a;" horiz-adv-x="216" 
d="M50 357v26l116 -92v-25l-116 -91v25l100 78z" />
    <glyph glyph-name="fraction" unicode="&#x2044;" horiz-adv-x="456" 
d="M50 0l336 700h20l-336 -700h-20z" />
    <glyph glyph-name="Euro" unicode="&#x20ac;" horiz-adv-x="544" 
d="M94 404v63q0 67 17 115.5t47 75t64 39t74 12.5q21 0 40.5 -3.5t38.5 -11t36 -19t31.5 -29.5t25.5 -40.5t17.5 -52.5t8.5 -65v-11h-19l-1 10q-4 58 -20 99t-41.5 63t-54 32t-62.5 10q-37 0 -67.5 -11t-57.5 -36t-42 -72.5t-15 -114.5v-53h298l-20 -20h-278v-68h210
l-20 -20h-190v-52q0 -67 15 -114.5t42 -72.5t57.5 -35.5t67.5 -10.5q166 0 179 204v9h19v-9q-2 -50 -14.5 -89t-31 -63.5t-44 -41t-52 -23t-56.5 -6.5q-40 0 -74 12.5t-64 39t-47 75t-17 115.5v62h-49v20h49v68h-49v20h49z" />
    <glyph glyph-name="trademark" unicode="&#x2122;" horiz-adv-x="548" 
d="M15 682v18h214v-18h-97v-388h-19v388h-98zM513 700h19v-406h-19v372l-119 -205h-12l-118 205v-372h-19v406h18l125 -216z" />
    <glyph glyph-name="partialdiff" unicode="&#x2202;" horiz-adv-x="600" 
 />
    <glyph glyph-name="emptyset" unicode="&#x2205;" horiz-adv-x="606" 
d="M560 493l-68 -68q69 -74 69 -175q0 -107 -75.5 -182.5t-182.5 -75.5q-101 0 -175 68l-69 -69l-14 14l69 69q-69 74 -69 176q0 107 75.5 182.5t182.5 75.5q101 0 175 -69l68 68zM303 13q99 0 168 69t69 168q0 98 -69.5 167.5t-167.5 69.5q-65 0 -119.5 -31.5t-86 -86
t-31.5 -119.5q0 -99 69 -168t168 -69z" />
    <glyph glyph-name="product" unicode="&#x220f;" horiz-adv-x="600" 
 />
    <glyph glyph-name="summation" unicode="&#x2211;" horiz-adv-x="600" 
 />
    <glyph glyph-name="minus" unicode="&#x2212;" horiz-adv-x="514" 
d="M50 322h414v-20h-414v20z" />
    <glyph glyph-name="radical" unicode="&#x221a;" horiz-adv-x="600" 
 />
    <glyph glyph-name="infinity" unicode="&#x221e;" horiz-adv-x="600" 
 />
    <glyph glyph-name="integral" unicode="&#x222b;" horiz-adv-x="342" 
d="M232 750h60v-18h-60q-14 0 -25.5 -7t-18.5 -20.5t-7 -29.5v-739q0 -33 -21 -54.5t-50 -21.5h-60v18h60q21 0 36 16.5t15 40.5v739q0 22 10 39.5t26 27t35 9.5z" />
    <glyph glyph-name="approxequal" unicode="&#x2248;" horiz-adv-x="577" 
d="M508 371h19q0 -55 -27.5 -90t-75.5 -35q-17 0 -34.5 4t-29 8t-28 15t-23 15.5t-24 19t-21.5 17.5q-54 43 -98 43q-46 0 -71 -33.5t-25 -84.5h-20q0 60 31 99t85 39q53 0 108 -44q4 -4 25 -21t29 -23t26 -16.5t34.5 -14.5t35.5 -4q41 0 62.5 30t21.5 76zM507 205h20
q0 -55 -27.5 -90t-75.5 -35q-17 0 -34.5 4t-29 8.5t-28.5 15t-23.5 15.5t-24 19.5t-21.5 17.5q-53 42 -97 42q-46 0 -71 -33.5t-25 -84.5h-20q0 60 31 99t85 39q51 0 108 -44q4 -4 25 -21t29 -22.5t26 -16.5t34.5 -14.5t35.5 -3.5q41 0 62 29.5t21 75.5z" />
    <glyph glyph-name="notequal" unicode="&#x2260;" horiz-adv-x="514" 
d="M464 418h-167l-57 -127h224v-19h-233l-122 -272h-19l122 272h-162v19h171l56 127h-227v19h236l119 263h19l-118 -263h158v-19z" />
    <glyph glyph-name="lessequal" unicode="&#x2264;" horiz-adv-x="389" 
d="M50 325l289 190v-25l-271 -178l271 -178v-24l-289 190v25zM50 20h289v-20h-289v20z" />
    <glyph glyph-name="greaterequal" unicode="&#x2265;" horiz-adv-x="389" 
d="M50 490v25l289 -190v-25l-289 -190v24l271 178zM50 20h289v-20h-289v20z" />
    <glyph glyph-name="lozenge" unicode="&#x25ca;" horiz-adv-x="600" 
 />
    <glyph glyph-name="K.ss01" horiz-adv-x="462" 
d="M364 700h24l-259 -309q114 0 152 -6.5t68 -37.5q53 -57 53 -198v-149h-20v139q0 141 -48 194q-22 23 -52.5 31t-72.5 8h-109v-372h-20v700h20v-316z" />
    <glyph glyph-name="R.ss01" horiz-adv-x="495" 
d="M80 0v709h151q30 0 57.5 -5.5t54 -18t45.5 -32t31 -49t12 -67.5v-21q0 -65 -34 -105t-89 -56q48 -14 77 -51q50 -61 50 -186v-118h-19v108q0 122 -43 180q-42 56 -131 56h-142v-344h-20zM231 691h-131v-328h131q32 0 61.5 7.5t57.5 24t45 49t17 77.5v11q0 37 -11 65.5
t-28 46t-41 28.5t-48.5 15t-52.5 4z" />
    <glyph glyph-name="f.ss01" horiz-adv-x="251" 
d="M201 709h5v-18h-5q-29 0 -46 -2.5t-33.5 -11.5t-24.5 -27t-13 -48.5t-5 -76.5v-25h127v-19h-127v-481h-19v533q0 58 8 93.5t28 53t43 23.5t62 6z" />
    <glyph glyph-name="k.ss01" horiz-adv-x="373" 
d="M285 500h24l-201 -227q64 0 96 -5.5t57 -23.5q67 -51 67 -212v-32h-19v22q0 158 -59 206q-35 27 -114 27h-59v-255h-19v700h19v-436z" />
    <glyph glyph-name="t.ss01" horiz-adv-x="251" 
d="M79 483v-299q0 -33 2.5 -58t6.5 -43t12.5 -30t17 -19t23 -10.5t27.5 -4.5t34 -1h4v-18h-4q-39 0 -62.5 5.5t-43 23t-28 53.5t-8.5 94v477h19v-153h127v-17h-127z" />
    <glyph glyph-name="afii10049.ss01" horiz-adv-x="495" 
d="M264 709h151v-709h-19v344h-143q-84 0 -125 -50q-48 -58 -48 -186v-108h-20v118q0 127 51 188q29 35 77 49q-56 16 -90 56t-34 105v21q0 46 17.5 81t47.5 54t63.5 28t71.5 9zM396 363v328h-132q-36 0 -65.5 -7.5t-56.5 -24t-42.5 -49t-15.5 -78.5v-11q0 -45 16.5 -77.5
t44.5 -49t57.5 -24t61.5 -7.5h132z" />
    <glyph glyph-name="afii10024.ss01" horiz-adv-x="744" 
d="M670 700l-259 -309q105 0 141 -5t64 -26q68 -52 68 -211v-149h-19v139q0 154 -59 203q-35 30 -115 30h-109v-372h-20v372h-109q-86 0 -122 -37q-51 -52 -51 -196v-139h-20v149q0 146 57 201q30 29 68.5 35t147.5 6l-259 309h24l264 -316v316h20v-316l265 316h23z" />
    <glyph glyph-name="afii10097.ss01" horiz-adv-x="374" 
d="M316 509v-509h-19v247h-59q-49 0 -80.5 -8t-52.5 -35q-40 -51 -40 -182v-22h-19v32q0 129 42 183q20 27 51 39q-50 11 -71.5 39t-22.5 77v5q0 35 8 59t27.5 41.5t52.5 25.5t82 8h101zM297 491h-73q-65 0 -100.5 -13t-48 -37t-12.5 -67q0 -57 29 -81.5t111 -27.5h94v226z
" />
    <glyph glyph-name="afii10076.ss01" horiz-adv-x="373" 
d="M285 500h24l-201 -227q69 0 103 -7t60 -31q57 -53 57 -203v-32h-19v22q0 147 -50 198q-22 21 -51.5 28t-71.5 7h-59v-255h-19v500h19v-236z" />
    <glyph glyph-name="afii10072.ss01" horiz-adv-x="611" 
d="M547 500l-200 -227q69 0 104 -7.5t60 -32.5q55 -54 55 -201v-32h-19v22q0 141 -46 193q-22 25 -52 32.5t-75 7.5h-59v-255h-19v255h-59q-41 0 -70 -6.5t-50 -26.5q-53 -50 -53 -200v-22h-19v32q0 157 64 209q25 20 58 26t98 6l-201 227h24l208 -236v236h19v-236l208 236
h24z" />
    <glyph glyph-name="two.dnom" horiz-adv-x="223" 
d="M108 341h14q34 0 62.5 -25t28.5 -73v-2q0 -33 -19 -58t-46 -40.5l-54 -31t-45.5 -38.5t-18.5 -53h179v-20h-199v19q0 25 10 45.5t26.5 34.5t36 26l39 24t35.5 24.5t26 30.5t10 39q0 29 -13 48t-28 25t-30 6h-5q-28 0 -53 -17.5t-33 -52.5h-20l1 4q9 41 36.5 61.5
t59.5 23.5z" />
    <glyph glyph-name="four.dnom" horiz-adv-x="237" 
d="M151 338h22l-139 -240h134v160h21v-160h38v-19h-38v-79h-20v79h-159v19z" />
    <glyph glyph-name="one.numr" horiz-adv-x="74" 
d="M10 700h54v-338h-20v319h-34v19z" />
    <glyph glyph-name="three.numr" horiz-adv-x="226" 
d="M109 700h15q29 0 58.5 -20.5t29.5 -58.5v-8q0 -26 -18 -45.5t-43 -24.5q65 -23 65 -86v-9q0 -38 -28 -61.5t-64 -23.5h-15q-30 0 -60.5 23.5t-38.5 66.5v2h20q7 -37 31.5 -55t53.5 -18h9q28 0 50 17.5t22 50.5v4q0 25 -11 43.5t-28.5 27.5t-37.5 9h-34v19h34
q16 0 31.5 5.5t28.5 20.5t13 36v4q0 31 -22 46.5t-46 15.5h-9q-27 0 -51 -16.5t-31 -50.5h-21v2q9 41 37.5 62t59.5 22z" />
    </font>
</defs>
</svg>
